Welcome Guest ( Log In | Register )

> И неформату есть предел.

Рэп/хип-хоп/шансон/поп удаляются. Для них есть свои порталы.

> Abney Park - Iconoclast (2019), Steampunk/Industrial/Gothic Rock (D6)
post Jan 16 2020, 20:26:20
Post #1

Red Army of Old Trafford
***
Group: Завсегдатай
Posts: 235
Releases: 8
From: SPb.ru
On Forums: 14 years 5 months
Thanks: 277 time(s)
Russian Federation


(IMG:http://metalarea.org/images/audiocovers/2020_Jan/acov_tid332733_thumb.jpg)

*Artist: Abney Park
*Album: Iconoclast
*Year: 2019
*Genre: Steampunk/Industrial/Gothic Rock
*Country: United States (IMG:http://metalarea.org/forum/style_images/flags/United%20States.png)
*Format: mp3@CBR320kbps
*Size: 130MB

Tracklist:
01. Come One Come All 03:17
02. Back To Zero 03:23
03. The Demon 03:18
04. Sailing Retrograde 03:42
05. Survival Of The Species 03:53
06. Chitty Chitty Bang Bang 02:58
07. Dystopia Now 03:11
08. Doldrums 03:55
09. Back To My Start 03:47
10. Welcome To The Throng 03:20
11. Some Wounds Don't Heal 03:15
12. So What Now? 03:20
13. Never Been Easy 02:50
14. Keep It Strange 03:03
15. Magic Dance 03:24
******************************
Total playing time: 50:36

(IMG:http://metalarea.org/images/youtube.png)
(IMG:http://metalarea.org/images/youtube.png)

Extended info
Robert Brown - vocals, darbuka, diatonic button accordion, harmonica, bouzouki, bağlama, ukulele
Kristina Erickson - keyboards, piano
Skye Warden - guitar
Mitchell Drury - violin
Derek Brown - bass


Technical info
(IMG:http://metalarea.org/images/spectrogram/2020_Jan/4729d48f91eaf83c603ead0235600074.png)
Input File: 04. Sailing Retrograde.mp3
Channels : 2
Sample Rate : 44100
Precision : 16-bit
Duration : 00:03:42.37 = 9806473 samples = 16677.7 CDDA sectors
File Size : 8.99M
Bit Rate : 323k
Sample Encoding: MPEG audio (layer I, II or III)
Comments :
Title=Sailing Retrograde
Artist=Abney Park
Album=Iconoclast (Deluxe Edition)
Tracknumber=4
Year=2019
Genre=Steampunk / Gothic Rock / Industrial



Register


Go to the top of the page
  Insert nick Quick quote
+Quote Post
 
Start new topic
Replies (1 - 2)
post Jan 18 2020, 11:41:52
Post #2

Маньяк
**********
Group: Металариец
Posts: 1,191
Releases: 37
From: великий город Питер
On Forums: 14 years 9 months
Thanks: 2029 time(s)
Russian Federation


что-то они чем дальше, тем уныло-попсовее....жаль, раньше хорошая музыка была
Go to the top of the page
  Insert nick Quick quote
+Quote Post
post Feb 10 2020, 22:49:50
Post #3

Red Army of Old Trafford
***
Group: Завсегдатай
Posts: 235
Releases: 8
From: SPb.ru
On Forums: 14 years 5 months
Thanks: 277 time(s)
Russian Federation


QUOTE(AlexCrazy @ Jan 18 2020, 13:41:52) *
что-то они чем дальше, тем уныло-попсовее....жаль, раньше хорошая музыка была


так всегда и со всеми - никто не молодеет ))
Go to the top of the page
  Insert nick Quick quote
+Quote Post

Reply to this topicStart new topic
1 User(s) are reading this topic (1 Guests and 0 Anonymous Users)
0 Members:

 



- Lo-Fi Version Support form
Copyrights and abuse reports form
Time is now: 27th September 2020 - 12:31:05