Welcome Guest ( Log In | Register )

> И неформату есть предел.

Рэп/хип-хоп/шансон/поп удаляются. Для них есть свои порталы.

> Die Like Gentlemen - Stories (2020), Sludge/Progressive Doom Metal (D4)
post Jan 17 2020, 18:37:50
Post #1

Правь статус, ####!111
**************
Group: Металариец
Posts: 3,013
Releases: 2701
From: Одесса
On Forums: 12 years 3 months
Thanks: 26680 time(s)
Ukraine


(IMG:http://metalarea.org/images/audiocovers/2020_Jan/acov_tid332759_thumb.jpg)

*Artist: Die Like Gentlemen
*Album: Stories
*Year: 2020
*Genre: Sludge/Progressive Doom Metal
*Country: United States (IMG:http://metalarea.org/forum/style_images/flags/United%20States.png)
*Format: mp3@CBR320kbps
*Size: 97MB

Tracklist:
1.Blind in One Eye
2.The Head of John the Baptist
3.Empty Kettle
4.After We're Dead
5.Drought
6.Harbinger of Joy
7.Dead Skin Mask
8.Come Closer
******************************
Total playing time: 40:24



Extended info
Line - up:

Sean - Bass
Shawn - Drums
Adam - Guitars, Vocals
Matt - Guitars (lead)

(IMG:https://www.metal-archives.com/images/3/5/4/0/3540368919_photo.jpg?0222)


Technical info
(IMG:http://metalarea.org/images/spectrogram/2020_Jan/3d7b91ca9d742feeb9cbf3c14ade20d0.png)
Input File: 01 - Blind in One Eye.mp3
Channels : 2
Sample Rate : 44100
Precision : 16-bit
Duration : 00:01:42.15 = 4504683 samples = 7661.03 CDDA sectors
File Size : 4.14M
Bit Rate : 324k
Sample Encoding: MPEG audio (layer I, II or III)
Comments :
Title=Blind in One Eye
Artist=Die Like Gentlemen
Album=Stories
Tracknumber=1
Year=2020
Genre=Sludge/Progressive Doom Metal



Register


Go to the top of the page
  Insert nick Quick quote
+Quote Post
 
Start new topic
Replies (1 - 2)
post Jan 18 2020, 07:16:23
Post #2

Пусто
***********
Group: Металариец
Posts: 1,903
Releases: 27
From: Санкт-Петербург
On Forums: 13 years 8 months
Thanks: 1636 time(s)
Russian Federation


судя по трём трекам на бк и "The first acoustic album" в описании можно сказать, что здесь нет никакого " Sludge/Progressive Doom Metal"
в неформат
Go to the top of the page
  Insert nick Quick quote
+Quote Post
post Jan 18 2020, 14:56:26
Post #3

Два Литра
**
Group: Завсегдатай
Posts: 154
Releases: 0
From: минск сити
On Forums: 11 years 3 months
Thanks: 38 time(s)
Belarus


Unplugged.
Go to the top of the page
  Insert nick Quick quote
+Quote Post

Reply to this topicStart new topic
1 User(s) are reading this topic (1 Guests and 0 Anonymous Users)
0 Members:

 



- Lo-Fi Version Support form
Copyrights and abuse reports form
Time is now: 26th September 2020 - 09:57:50