Welcome Guest ( Log In | Register )

> Rawfoil - Tales From The Four Towers [ep] (2020), Thrash/Speed Metal
post Jan 17 2020, 19:50:57
Post #1

Правь статус, ####!111
**************
Group: Металариец
Posts: 27,653
Releases: 20089
From: Г.Харьков
On Forums: 9 years 5 months
Thanks: 406429 time(s)
Unknown


(IMG:http://metalarea.org/images/audiocovers/2020_Jan/acov_tid332763_thumb.jpg)

*Artist: Rawfoil
*Album: Tales From The Four Towers [ep]
*Year: 2020
*Genre: Thrash/Speed Metal
*Country: Italy (IMG:http://metalarea.org/forum/style_images/flags/Italy.png)
*Format: mp3@CBR320kbps
*Size: 40MB

Tracklist:
1. People Who Not Drink Are Not People 06:07
2. Cult of Ignorance 03:53
3. Braindead Diver 03:52
4. Thick Slices 03:08
******************************
Total playing time: 17:00




Extended info
Lorenzo Riboldi Bass, Vocals (backing) (2009-present)
Francesco Ruvolo Vocals (2009-present)
See also: Ignorance Flows
Sborradamatti Drums (2015-present)
See also: Theory of Chaos
Ruben Crispino Guitars (2015-present)
Giacomo Cappellin Guitars, Vocals (backing) (2015-present)



Technical info
(IMG:http://metalarea.org/images/spectrogram/2020_Jan/fc1582de19043fcb27bd8ba31c608861.png)
Input File: 01 - People Who Don\'t Drink Are Not People.mp3
Channels : 2
Sample Rate : 44100
Precision : 16-bit
Duration : 00:06:07.54 = 16208514 samples = 27565.5 CDDA sectors
File Size : 14.9M
Bit Rate : 325k
Sample Encoding: MPEG audio (layer I, II or III)
Comments :
Title=People Who Don't Drink Are Not People
Artist=Rawfoil
Album=Tales from the Four Towers
Tracknumber=1
Year=2020-01-17
Genre=Rock
Discnumber=1



Register


Go to the top of the page
  Insert nick Quick quote
+Quote Post
 
Start new topic
Replies (1 - 2)
post Feb 10 2021, 07:53:52    Сейчас играет: Brulvahnatu - Misshapen White Hand
Post #2

antithesis
**************
Group: Металариец
Posts: 3,448
Releases: 35
From: VRN
On Forums: 11 years 4 months
Thanks: 2201 time(s)
Russian Federation


потенциала много, но этот релиз показался сумбурным.
Go to the top of the page
  Insert nick Quick quote
+Quote Post
post Oct 13 2021, 15:55:08
Post #3

Правь статус, ####!111
**************
Group: Металариец
Posts: 5,115
Releases: 468
From: MoscoW
On Forums: 14 years 10 months
Thanks: 7542 time(s)
Russian Federation


Можно скачать Б/П в 320kbps!!!:
RAWFOIL:

(IMG:style_emoticons/default/metaler.gif)
Go to the top of the page
  Insert nick Quick quote
+Quote Post

Reply to this topicStart new topic
1 User(s) are reading this topic (1 Guests and 0 Anonymous Users)
0 Members:

 



- Lo-Fi Version Support form
Copyrights and abuse reports form
Time is now: 15th October 2021 - 21:35:25