Welcome Guest ( Log In | Register )

> Order Ov Riven Cathedrals - Thermonuclear Sculptures Blackness (2019), Progressive/Technical Death Metal
post Jan 18 2020, 02:57:18
Post #1

Правь статус, ####!111
**************
Group: Металариец
Posts: 21,273
Releases: 14552
From: Г.Харьков
On Forums: 7 years 10 months
Thanks: 259683 time(s)
Unknown


(IMG:http://metalarea.org/images/audiocovers/2020_Jan/acov_tid332771_thumb.jpg)

*Artist: Order Ov Riven Cathedrals
*Album: Thermonuclear Sculptures Blackness
*Year: 2019
*Genre: Progressive/Technical Death Metal
*Country: Italy (IMG:http://metalarea.org/forum/style_images/flags/Italy.png)
*Format: mp3@CBR320kbps
*Size: 103MB

Tracklist:
1. Drowning into Darkest Victory 01:00
2. Act ov Hydrogen 05:32
3. Indoctrination ov a Nuclear Fireball 04:23
4. Obscuring Uranus' Gateways 05:14
5. Downgrading the Codes ov a Treacherous Immortality 05:45
6. Thermonuclear Sculptures Blackness 05:58
7. Purification Through the Codes ov Obedience 05:18
8. Inverting the Storm ov Ages 03:50
9. Adjuration to a Neutron Star 04:26
10. Mesmerizing the Kinetic Void 02:06
******************************
Total playing time: 43:32



Extended info
12 All instruments, Lyrics
En Sabah Nur Vocals, Lyrics



Technical info
(IMG:http://metalarea.org/images/spectrogram/2020_Jan/4cd8c32f134e7fe5d764bf4eff186e7d.png)
Input File: 04. Obscuring Uranus\' Gateways.mp3
Channels : 2
Sample Rate : 44100
Precision : 16-bit
Duration : 00:05:14.09 = 13851369 samples = 23556.7 CDDA sectors
File Size : 12.9M
Bit Rate : 329k
Sample Encoding: MPEG audio (layer I, II or III)
Comments :
Title=Obscuring Uranus' Gateways
Artist=Order ov Riven Cathedrals
Album=Thermonuclear Sculptures Blackness (320)
Tracknumber=04
Year=2019
Genre=Metal



Register


Go to the top of the page
  Insert nick Quick quote
+Quote Post
 
Start new topic
Replies (1 - 3)
post Jan 18 2020, 19:25:22
Post #2

Group: Подсевший
Posts: 19
Releases: 0
On Forums: 2 years 4 days
Thanks: 18 time(s)
Unknown


Thanks a lot! Have been looking for this for a while!


Thanks:
Go to the top of the page
  Insert nick Quick quote
+Quote Post
post Feb 1 2020, 21:49:05
Post #3

Сектант технодро4чер
**************
Group: Металариец
Posts: 5,517
Releases: 143
From: Тимчасово окупована територія
On Forums: 11 years 7 months
Thanks: 5804 time(s)
Ukraine


Ох, как бодро! (IMG:style_emoticons/default/metaler.gif)
Go to the top of the page
  Insert nick Quick quote
+Quote Post
post Feb 11 2020, 13:02:57
Post #4

Schuldinerist
**************
Group: Металариец
Posts: 10,527
Releases: 33
From:
On Forums: 12 years 11 months
Thanks: 6726 time(s)
Russian Federation


В итальянском дуэте один поёт, другой играет на всех инструментах:
12 - All instruments, Lyrics
En Sabah Nur - Vocals, Lyrics

В целом не скажу, что это вершина жанра, но как минимум рекомендую ознакомится. Заслужили.
В меру зло и хаотично, в меру ортодоксально.
8/10


Thanks:
Go to the top of the page
  Insert nick Quick quote
+Quote Post

Reply to this topicStart new topic
2 User(s) are reading this topic (2 Guests and 0 Anonymous Users)
0 Members:

 



- Lo-Fi Version Support form
Copyrights and abuse reports form
Time is now: 5th April 2020 - 05:30:47