Welcome Guest ( Log In | Register )

> И неформату есть предел.

Рэп/хип-хоп/шансон/поп удаляются. Для них есть свои порталы.

 
Reply to this topicStart new topic
> Epica - The Acoustic Universe [ep] (2019), Acoustic (D)
post Jan 19 2020, 16:02:12
Post #1

Добрый десептикон
******
Group: Металариец
Posts: 606
Releases: 409
On Forums: 12 years 5 months
Thanks: 4364 time(s)
Russian Federation


(IMG:http://metalarea.org/images/audiocovers/2020_Jan/acov_tid332830_thumb.jpg)

*Artist: Epica
*Album: The Acoustic Universe [ep]
*Year: 2019
*Genre: Acoustic
*Country: Netherlands (IMG:http://metalarea.org/forum/style_images/flags/Netherlands.png)
*Format: mp3@CBR320kbps
*Size: 64MB

Tracklist:
1. Burn to a Cinder (Acoustic Version)
2. Our Destiny (Acoustic Version)
3. Unleashed (Acoustic Version)
4. Martyr of the Free Word (Acoustic Version)
5. Design Your Universe (Acoustic Version)
******************************
Total playing time: 27:52


(IMG:http://metalarea.org/images/youtube.png)

Technical info
(IMG:http://metalarea.org/images/spectrogram/2020_Jan/5998759bb90510250ad2f1f211b1e21f.png)
Input File: 01 - Burn to a Cinder (Acoustic version).mp3
Channels : 2
Sample Rate : 44100
Precision : 16-bit
Duration : 00:05:29.71 = 14540343 samples = 24728.5 CDDA sectors
File Size : 13.2M
Bit Rate : 320k
Sample Encoding: MPEG audio (layer I, II or III)
Comments :
Title=Burn to a Cinder (Acoustic version)
Artist=Epica
Album=The Acoustic Universe
Tracknumber=1
Year=2019
Genre=99



Register


Go to the top of the page
  Insert nick Quick quote
+Quote Post

Reply to this topicStart new topic
1 User(s) are reading this topic (1 Guests and 0 Anonymous Users)
0 Members:

 



- Lo-Fi Version Support form
Copyrights and abuse reports form
Time is now: 11th July 2020 - 02:07:29