Welcome Guest ( Log In | Register )

> Belore - Journey Through Mountains And Valleys (2020), Epic Black Metal
post Jan 19 2020, 20:58:20
Post #1

Правь статус, ####!111
**************
Group: Металариец
Posts: 21,972
Releases: 15165
From: Г.Харьков
On Forums: 8 years 3 weeks
Thanks: 275364 time(s)
Unknown


(IMG:http://metalarea.org/images/audiocovers/2020_Jan/acov_tid332837_thumb.jpg)

*Artist: Belore
*Album: Journey Through Mountains And Valleys
*Year: 2020
*Genre: Epic Black Metal
*Country: France (IMG:http://metalarea.org/forum/style_images/flags/France.png)
*Format: mp3@CBR320kbps
*Size: 119MB

Tracklist:
1. The Valley of the Giants
2. The Whispering Mountains
3. The Bewitching Horns
4. The Howlings Fields
5. The Initiation Ritual
6. The King's Funeral
7. The Return of the Fallen Heroes
8. The Serenity of Steel
******************************
Total playing time: 52:43




Extended info
Aleevok - All instruments & lyrics


Technical info
(IMG:http://metalarea.org/images/spectrogram/2020_Jan/60412659eb8b7accc05180625060149a.png)
Input File: 04 - The Howlings Fields.mp3
Channels : 2
Sample Rate : 44100
Precision : 16-bit
Duration : 00:05:20.43 = 14131051 samples = 24032.4 CDDA sectors
File Size : 12.8M
Bit Rate : 320k
Sample Encoding: MPEG audio (layer I, II or III)
Comments :
Title=The Howlings Fields
Artist=Belore
Album=Journey Through Mountains and Valleys
Tracknumber=4
Year=2020
Genre=Black Metal



Register


Go to the top of the page
  Insert nick Quick quote
+Quote Post
 
Start new topic
Replies (1 - 3)
post Jan 20 2020, 15:02:16
Post #2

Правь статус, ####!111
**************
Group: Металариец
Posts: 3,023
Releases: 8
From: Dnipro
On Forums: 11 years 10 months
Thanks: 978 time(s)
Ukraine


Belore is an Epic Black Metal project directly influenced by bands like Summoning, Caladan Brood, Saor, Emyn Muil and Moonsorrow, as well as various heroic fantasy and medieval worlds.


Thanks:
Go to the top of the page
  Insert nick Quick quote
+Quote Post
post Jan 21 2020, 19:25:06
Post #3

Маньяк
**********
Group: Металариец
Posts: 1,323
Releases: 0
From: Russian Federation - St.Petersburg
On Forums: 11 years 3 months
Thanks: 332 time(s)
Russian Federation


Классная вещь! Напомнило Caladan Brood! (IMG:style_emoticons/default/20.gif)
Go to the top of the page
  Insert nick Quick quote
+Quote Post
post Mar 22 2020, 17:25:56
Post #4

for me your flesh
**********
Group: Металариец
Posts: 1,032
Releases: 0
On Forums: 2 years 10 months
Thanks: 795 time(s)
Unknown


Приятные воздушные мелодии, меланхолично и эпично. Хороший и качественный замес из Caladan Brood и Saor.
Go to the top of the page
  Insert nick Quick quote
+Quote Post

Reply to this topicStart new topic
2 User(s) are reading this topic (2 Guests and 0 Anonymous Users)
0 Members:

 



- Lo-Fi Version Support form
Copyrights and abuse reports form
Time is now: 6th June 2020 - 19:00:05