Welcome Guest ( Log In | Register )

> Nocturnal - The Greater Emptiness (2019), Black/Doom Metal
post Jan 20 2020, 04:12:07
Post #1

Правь статус, ####!111
**************
Group: Металариец
Posts: 4,376
Releases: 1234
From: Brazil
On Forums: 8 years 4 months
Thanks: 46295 time(s)
Brazil


(IMG:https://metalarea.org/images/audiocovers/2020_Jan/acov_tid332859_thumb.jpg)

*Artist: Nocturnal
*Album: The Greater Emptiness
*Year: 2019
*Genre: Black/Doom Metal
*Country: Australia (IMG:https://metalarea.org/forum/style_images/flags/Australia.png)
*Format: mp3@CBR320kbps
*Size: 73MB

Tracklist:
1. My Temple 05:46
2. My Flesh Is but Rot 05:22
3. The Greater Emptiness 07:04
4. Nail 04:12
5. Song of Death 04:21
6. Shadows in Euclidean Spaces 05:06
******************************
Total playing time: 31:51



Extended info
Séance Records

Séance records are proud to announce the release of Nocturnal’s new album, ‘The Greater Emptiness’ to be released on the 29th of October. With the first new album in 19 years this highly underrated pioneer of 90's Australian underground Black Metal returns with ‘The Greater Emptiness’, a deftly woven tapestry of doom, depressive and atmospheric black metal. Each musical thread is an elegiac culmination of shadows laden with sublime melancholia to create an evocative enigma of powerful emotion. Nocturnal awakens to the endless night once again to traverse the great abyss, stare into the darkness and revel in the greatest of mysteries; a myriad of poetic pain and the nature of life, death and beyond.


Technical info
(IMG:https://metalarea.org/images/spectrogram/2020_Jan/be554bf020d85e7074846579ca327cb2.png)
Input File: 05 Song of Death.mp3
Channels : 2
Sample Rate : 44100
Precision : 16-bit
Duration : 00:04:21.08 = 11513716 samples = 19581.1 CDDA sectors
File Size : 10.4M
Bit Rate : 320k
Sample Encoding: MPEG audio (layer I, II or III)
Comments :
Title=Song of Death
Artist=Nocturnal
Album=The Greater Emptiness
Tracknumber=5
Year=2019



Register


Go to the top of the page
  Insert nick Quick quote
+Quote Post
 
Start new topic
Replies (1 - 8)
post Jan 20 2020, 15:10:23
Post #2

Правь статус, ####!111
**************
Group: Металариец
Posts: 3,023
Releases: 8
From: Dnipro
On Forums: 11 years 10 months
Thanks: 978 time(s)
Ukraine


Очень не плохо, но мало.


Thanks:
Go to the top of the page
  Insert nick Quick quote
+Quote Post
post Jan 20 2020, 15:45:16
Post #3

Правь статус, ####!111
**************
Group: Металариец
Posts: 46,493
Releases: 718
On Forums: 11 years 5 days
Thanks: 39037 time(s)
Russian Federation


Фантазия на названия софсем иссякла.
Go to the top of the page
  Insert nick Quick quote
+Quote Post
post Jan 20 2020, 19:14:55
Post #4

Восемь Литров
********
Group: Металариец
Posts: 870
Releases: 0
From: Черкассы
On Forums: 8 years 6 months
Thanks: 125 time(s)
Ukraine


Очень неинтересный Depressive
Go to the top of the page
  Insert nick Quick quote
+Quote Post
post Jan 21 2020, 05:31:18
Post #5

i listen to black metal
**************
Group: Металариец
Posts: 2,579
Releases: 132
From: Москва-Лианозово
On Forums: 13 years 5 months
Thanks: 2142 time(s)
Russian Federation


ЦИТАТА(krotovich @ Jan 20 2020, 21:14:55) *
Очень неинтересный Depressive

(IMG:style_emoticons/default/1488.gif) (IMG:style_emoticons/default/1488.gif) (IMG:style_emoticons/default/1488.gif) уморил....


Thanks:
(1) krotovich,
Go to the top of the page
  Insert nick Quick quote
+Quote Post
post Jan 21 2020, 06:26:16
Post #6

Самый Тихий Час
**************
Group: Металариец
Posts: 5,951
Releases: 2
On Forums: 10 years 6 months
Thanks: 2754 time(s)
Unknown


ЦИТАТА(vosmidesijatye @ Jan 20 2020, 17:45:16) *
Фантазия на названия софсем иссякла.

ради приличия посмотрел бы возраст проекта.


Thanks:
Go to the top of the page
  Insert nick Quick quote
+Quote Post
post Jan 21 2020, 07:23:54
Post #7

Правь статус, ####!111
**************
Group: Металариец
Posts: 2,584
Releases: 12
On Forums: 12 years 10 months
Thanks: 1471 time(s)
Russian Federation


Отличный релизец, однако. Без откровений, но уж больно все в кассу.


Thanks:
(1) Фо,
Go to the top of the page
  Insert nick Quick quote
+Quote Post
post Jan 21 2020, 21:47:32
Post #8

Четыре Литра
****
Group: Металариец
Posts: 315
Releases: 5
On Forums: 13 years 2 months
Thanks: 269 time(s)
Russian Federation


ЦИТАТА(Chasm @ Jan 21 2020, 09:26:16) *
ради приличия посмотрел бы возраст проекта.

ну так [мат->бан]еть, не мешки ворочать.

19 лет с выхода предыдущего альбома. По превью - что-то в этом есть, нужно слушать.
Go to the top of the page
  Insert nick Quick quote
+Quote Post
post Mar 13 2020, 04:59:18
Post #9

Group: Подсевший
Posts: 26
Releases: 0
From: Ukrain
On Forums: 1 year 6 months
Thanks: 0 time(s)
Ukraine


Где первые два альбома можно достать ? Желательно в лосслес . Их теперь уже не купить .
Go to the top of the page
  Insert nick Quick quote
+Quote Post

Reply to this topicStart new topic
2 User(s) are reading this topic (2 Guests and 0 Anonymous Users)
0 Members:

 



- Lo-Fi Version Support form
Copyrights and abuse reports form
Time is now: 6th June 2020 - 19:06:00