Welcome Guest ( Log In | Register )

> Sarcas - Cesspool Of Humanity (2019), Thrash/Heavy Metal
post Jan 20 2020, 10:01:42
Post #1

Правь статус, ####!111
**************
Group: Металариец
Posts: 6,513
Releases: 6003
From: Lithuania
On Forums: 13 years 8 months
Thanks: 44968 time(s)
Lithuania


(IMG:https://metalarea.org/images/audiocovers/2020_Jan/acov_tid332865_thumb.jpg)

*Artist: Sarcas
*Album: Cesspool Of Humanity
*Year: 2019
*Genre: Thrash/Heavy Metal
*Country: Slovakia (IMG:https://metalarea.org/forum/style_images/flags/Slovakia.png)
*Format: mp3@CBR320kbps
*Size: 97MB

Tracklist:
1. Intro 00:52 (instrumental)
2. Slashed on Ruin 05:01
3. A Dark Mind 03:37
4. Instrumetal 02:15 (instrumental)
5. I'm Beyond 04:54
6. Death Has Quick Pace 03:58
7. I Hate Myself 05:14
8. Crime Against Mind 03:36
9. Cursed Life 03:54
10. God Particle 08:15
******************************
Total playing time: 41:36




Technical info
(IMG:https://metalarea.org/images/spectrogram/2020_Jan/b44fe4a12901f1ed8401d717f17ba1a6.png)
Input File: 02 - Slashed on Ruin.mp3
Channels : 2
Sample Rate : 44100
Precision : 16-bit
Duration : 00:05:00.58 = 13255754 samples = 22543.8 CDDA sectors
File Size : 12.2M
Bit Rate : 325k
Sample Encoding: MPEG audio (layer I, II or III)
Comments :
Title=Slashed on Ruin
Artist=SARCAS
Album=Cesspool of Humanity
Tracknumber=2
Year=2019
Genre=Metal
Discnumber=1



Register


Go to the top of the page
  Insert nick Quick quote
+Quote Post
 
Start new topic
Replies (1 - 3)
post Jan 22 2020, 08:46:05
Post #2

Правь статус, ####!111
**************
Group: Металариец
Posts: 3,023
Releases: 8
From: Dnipro
On Forums: 11 years 10 months
Thanks: 978 time(s)
Ukraine


Эксперименталом и альтернативщиной отдает конкретно.
Но звучит очень не плохо!!! И наверное все таки Thrash/Death Metal


Thanks:
(1) Andrew,
Go to the top of the page
  Insert nick Quick quote
+Quote Post
post Jan 27 2020, 14:10:05
Post #3

MDM-Thrash Metal
**************
Group: Металариец
Posts: 9,539
Releases: 866
From: Одесса
On Forums: 12 years 9 months
Thanks: 22709 time(s)
Ukraine


ЦИТАТА(Gelukas @ Jan 20 2020, 13:01:42) *
*Artist: Sarcas

...Поначалу показалось.

Муз часть очень понравилась, а вот вокал и манера исполнения как то не ахти.
Go to the top of the page
  Insert nick Quick quote
+Quote Post
post Jan 28 2020, 09:28:40
Post #4

Правь статус, ####!111
**************
Group: Металариец
Posts: 3,023
Releases: 8
From: Dnipro
On Forums: 11 years 10 months
Thanks: 978 time(s)
Ukraine


Прогнал три раза, очень замечательный альбом, душевный и заводной.


Thanks:
(1) Gelukas,
Go to the top of the page
  Insert nick Quick quote
+Quote Post

Reply to this topicStart new topic
2 User(s) are reading this topic (2 Guests and 0 Anonymous Users)
0 Members:

 



- Lo-Fi Version Support form
Copyrights and abuse reports form
Time is now: 6th June 2020 - 17:10:51