Welcome Guest ( Log In | Register )

> И неформату есть предел.

Рэп/хип-хоп/шансон/поп удаляются. Для них есть свои порталы.

 
Reply to this topicStart new topic
> Moon Halo - Chroma (2020), Progressive Rock
post Jan 21 2020, 09:08:01
Post #1

**********
Group: Металариец
Posts: 1,297
Releases: 189
From: Подмосковье
On Forums: 11 years 2 months
Thanks: 3515 time(s)
Russian Federation


(IMG:http://metalarea.org/images/audiocovers/2020_Jan/acov_tid332907_thumb.jpg)

*Artist: Moon Halo
*Album: Chroma
*Year: 2020
*Genre: Progressive Rock
*Country: United Kingdom (IMG:http://metalarea.org/forum/style_images/flags/United%20Kingdom.png)
*Format: mp3@CBR320kbps
*Size: 138MB

Tracklist:
01. The Web 4:49
02. Seize the Day 4:08
03. Chroma 2:32
04. The Veil 6:32
05. Parachute 4:47
06. Somebody Save Us 3:51
07. Whats Your Name 3:13
08. Seventh Heaven 4:54
09. Let Me Out 5:13
10. Awoken 4:13
11. Across the Great Divide 5:10
12. Rise Up 4:33
13. Don't Let It End Like This 6:27
******************************
Total playing time: 1:00:22

(IMG:http://metalarea.org/images/youtube.png)


Extended info
Line-up:
Iain Jennings (Mostly Autumn, Breathing Space): Keyboards, Programming
Mark Atkinson (Riversea, Lee Abraham, Nine Stones Close): Vocals, Acoustic Guitar (4, 6, 8)
Dave Clements (Riversea): Bass

With:
Alex Cromarty (Riversea, Mantra Vega, Heather Findlay): Drums
Martin Ledger (Heather Findlay): Guitars (1-9, 11-13)
Anne-Marie Helder (Karnataka, Panic Room): Backing Vocals (1, 4, 8, 10, 12)
Olivia Sparnenn-Josh (Breating Space, Mostly Autumn): Additional Vocals (13)
Janine Atkinson (Riversea): Backing Vocals (2, 7, 9, 12)
Tammy Pawson: Additional Backing Vocals (5)
Mikey Gibson: Guitars (10), Additional Guitars (5)


Technical info
(IMG:http://metalarea.org/images/spectrogram/2020_Jan/0c1663c985bd7f930cf5bf0f923dc13d.png)
Input File: 04 - The Veil.mp3
Channels : 2
Sample Rate : 44100
Precision : 16-bit
Duration : 00:06:31.97 = 17285701 samples = 29397.5 CDDA sectors
File Size : 15.8M
Bit Rate : 322k
Sample Encoding: MPEG audio (layer I, II or III)
Comments :
Title=The Veil
Artist=Moon Halo
Album=Chroma
Tracknumber=4
Year=2020
Genre=Progressive Rock
Discnumber=1



Register


Go to the top of the page
  Insert nick Quick quote
+Quote Post

Reply to this topicStart new topic
1 User(s) are reading this topic (1 Guests and 0 Anonymous Users)
0 Members:

 



- Lo-Fi Version Support form
Copyrights and abuse reports form
Time is now: 27th September 2020 - 12:51:27