Welcome Guest ( Log In | Register )

> И неформату есть предел.

Рэп/хип-хоп/шансон/поп удаляются. Для них есть свои порталы.

 
Reply to this topicStart new topic
> Various Artists - Godflesh Streetcleaner: The Cvlt Nation Sessions [compilation] (2019), Industrial Metal/Industrial/Noise (D2159)
post Jan 22 2020, 20:34:52
Post #1

Три Литра
***
Group: Завсегдатай
Posts: 207
Releases: 8
From: Санкт-Петербург
On Forums: 13 years 10 months
Thanks: 675 time(s)
Russian Federation


(IMG:http://metalarea.org/images/audiocovers/2020_Jan/acov_tid332964_thumb.jpg)

*Artist: Various Artists
*Album: Godflesh Streetcleaner: The Cvlt Nation Sessions [compilation]
*Year: 2019
*Genre: Industrial Metal/Industrial/Noise
*Country: Many (IMG:http://metalarea.org/forum/style_images/flags/Many.png)
*Format: mp3@CBR320kbps
*Size: 133MB

Tracklist:
01. Street Sects - Like Rats 04:23
02. American - Christbait Rising 08:57
03. Lunacy - Pulp 04:33
04. At The Heart Of The World - Dream Long Dead 04:49
05. Treha Sektori - Head Dirt 04:31
06. Many Blessings - Devastator / Mighty Trust Krusher 10:17
07. Hissing - Life Is Easy 07:39
08. Statiqbloom - Streetcleaner 06:52
09. Atriarch - Locust Furnace 04:34
******************************
Total playing time: 56:34



Extended info
Средний паршивости трибьют на культовый альбом. Только для упертых фанатов и коллекционеров.


Technical info
(IMG:http://metalarea.org/images/spectrogram/2020_Jan/e88f39c3e34831eaf647ba9fc435a6be.png)
Input File: 01 - Street Sects - Like Rats.mp3
Channels : 2
Sample Rate : 44100
Precision : 16-bit
Duration : 00:04:23.46 = 11618674 samples = 19759.6 CDDA sectors
File Size : 10.5M
Bit Rate : 320k
Sample Encoding: MPEG audio (layer I, II or III)
Comments :
Title=Street Sects: Like Rats
Artist=Compilation
Album=GODFLESH Streetcleaner: The CVLT Nation Sessions
Tracknumber=01
Year=2019
Genre=Industrial Metal/Industrial/Noise



Register


Go to the top of the page
  Insert nick Quick quote
+Quote Post

Reply to this topicStart new topic
1 User(s) are reading this topic (1 Guests and 0 Anonymous Users)
0 Members:

 



- Lo-Fi Version Support form
Copyrights and abuse reports form
Time is now: 10th April 2020 - 13:28:32