Welcome Guest ( Log In | Register )

> Nero Di Marte - Immoto (2020), Progressive Death/Post-Metal/Experimental
post Jan 23 2020, 10:39:05
Post #1

Маньяк
**********
Group: Металариец
Posts: 1,009
Releases: 182
On Forums: 11 years 4 months
Thanks: 3593 time(s)
Russian Federation


(IMG:http://metalarea.org/images/audiocovers/2020_Jan/acov_tid332969_thumb.jpg)

*Artist: Nero Di Marte
*Album: Immoto
*Year: 2020
*Genre: Progressive Death/Post-Metal/Experimental
*Country: Italy (IMG:http://metalarea.org/forum/style_images/flags/Italy.png)
*Format: mp3@CBR320kbps
*Size: 154MB

Tracklist:
01. Sisyphos 11:31
02. L'Arca 08:43
03. Immoto 12:59
04. Semicerchi 07:15
05. La Casa del Diavolo 11:59
06. Irradia 10:07
07. La Fuga 04:38
******************************
Total playing time: 1:07:12



Extended info


Label: Season of Mist
Format: 2 12" vinyls (33⅓ RPM)
Limitation: 350 copies


(IMG:https://www.metal-archives.com/images/8/0/5/3/805370.jpg)

LineUp:
Andrea Burgio - Bass
Francesco D'Adamo - Guitars
Sean Worrell - Vocals, Guitars
Giulio Galati - Drums


Technical info
(IMG:http://metalarea.org/images/spectrogram/2020_Jan/be884994785cb02f794e57403980e60d.png)
Input File: 01-Sisyphos.mp3
Channels : 2
Sample Rate : 44100
Precision : 16-bit
Duration : 00:11:30.72 = 30460708 samples = 51803.9 CDDA sectors
File Size : 27.6M
Bit Rate : 320k
Sample Encoding: MPEG audio (layer I, II or III)
Comments :
Title=Sisyphos
Artist=Nero Di Marte
Album=Immoto
Tracknumber=1
Year=2020
Genre=Progressive Death, Post-Metal



Register


Go to the top of the page
  Insert nick Quick quote
+Quote Post
 
Start new topic
Replies (1 - 6)
post Jan 24 2020, 00:54:23
Post #2

Мегаманьяк
***********
Group: Металариец
Posts: 1,910
Releases: 0
From: Харьков
On Forums: 10 years 6 months
Thanks: 846 time(s)
Ukraine


Надо послушать.
Go to the top of the page
  Insert nick Quick quote
+Quote Post
post Jan 25 2020, 16:39:32
Post #3

Crush! Kill! Destroy!
**************
Group: Металариец
Posts: 5,302
Releases: 15
From: Kaliningrad
On Forums: 12 years 4 months
Thanks: 4908 time(s)
Russian Federation


Начали хорошо (это я про дискографию), продолжили отлично, но споткнулись и вляпались в какую-то непонятную субстанцию. Послушаю еще разок конечно же, но сомневаюсь, что субстанция от этого перестанет быть субстанцией (IMG:style_emoticons/default/25.gif)
Go to the top of the page
  Insert nick Quick quote
+Quote Post
post Feb 4 2020, 14:45:02
Post #4

В чистоте и единстве:мысль-слово-дело
**************
Group: Металариец
Posts: 2,411
Releases: 9
From: Киев
On Forums: 12 years 8 months
Thanks: 1403 time(s)
Ukraine


Напоминает Ulcerate. Лично мне вкатило 3 раза уже прослушал. Особенно хорош драмер.
Go to the top of the page
  Insert nick Quick quote
+Quote Post
post Feb 4 2020, 14:55:57
Post #5

Семь Литров
*******
Group: Металариец
Posts: 743
Releases: 0
On Forums: 3 months 4 weeks
Thanks: 563 time(s)
Russian Federation


Луч, а они и играли всегда что-то между Ulcerate и Mastodon. Лично мне такая смесь не нравится, но я прекрасно понимаю почему и чем она цепляет.
Go to the top of the page
  Insert nick Quick quote
+Quote Post
post Feb 4 2020, 14:57:29
Post #6

В чистоте и единстве:мысль-слово-дело
**************
Group: Металариец
Posts: 2,411
Releases: 9
From: Киев
On Forums: 12 years 8 months
Thanks: 1403 time(s)
Ukraine


atom72,
это первый альбом который я у них услышал. качну ранние.
Go to the top of the page
  Insert nick Quick quote
+Quote Post
post Feb 4 2020, 15:04:16
Post #7

Семь Литров
*******
Group: Металариец
Posts: 743
Releases: 0
On Forums: 3 months 4 weeks
Thanks: 563 time(s)
Russian Federation


Луч, дебютник лучший.


Thanks:
(1) Луч,
Go to the top of the page
  Insert nick Quick quote
+Quote Post

Reply to this topicStart new topic
2 User(s) are reading this topic (2 Guests and 0 Anonymous Users)
0 Members:

 



- Lo-Fi Version Support form
Copyrights and abuse reports form
Time is now: 29th March 2020 - 01:12:54