Welcome Guest ( Log In | Register )

> Quasarborn - A Pill Hard To Swallow (2020), Technical Thrash Metal
post Jan 23 2020, 15:12:04
Post #1

Правь статус, ####!111
**************
Group: Металариец
Posts: 21,307
Releases: 14579
From: Г.Харьков
On Forums: 7 years 10 months
Thanks: 260507 time(s)
Unknown


(IMG:http://metalarea.org/images/audiocovers/2020_Jan/acov_tid332997_thumb.jpg)

*Artist: Quasarborn
*Album: A Pill Hard To Swallow
*Year: 2020
*Genre: Technical Thrash Metal
*Country: Serbia (IMG:http://metalarea.org/forum/style_images/flags/Serbia.png)
*Format: mp3@CBR320kbps
*Size: 114MB

Tracklist:
1. Mamula 03:50
2. A Pill Hard to Swallow 04:49
3. Bastion 05:30
4. Identity Catharsis 03:41
5. Atlas 04:55
6. Nothing 05:18
7. Stalemate with Suicide 09:09
8. The Ascent 01:21
9. Clouds 04:34
10. The Humbling 06:12
******************************
Total playing time: 49:19




Extended info
Đorđe Luković Guitars
Luka Matković Vocals, Guitars
Miloš Tomasović Bass
Marko Danilović Drums




Technical info
(IMG:http://metalarea.org/images/spectrogram/2020_Jan/19b2cbc8fe74c82e9fcf9f40dd934d33.png)
Input File: 06 - Nothing.mp3
Channels : 2
Sample Rate : 44100
Precision : 16-bit
Duration : 00:05:18.14 = 14029930 samples = 23860.4 CDDA sectors
File Size : 12.9M
Bit Rate : 323k
Sample Encoding: MPEG audio (layer I, II or III)
Comments :
Title=Nothing
Artist=Quasarborn
Album=A Pill Hard to Swallow
Tracknumber=6
Year=2020
Genre=Alternative/Indie Rock/Metal
Discnumber=1



Register


Go to the top of the page
  Insert nick Quick quote
+Quote Post
 
Start new topic
Replies (1 - 4)
post Jan 24 2020, 06:48:50
Post #2

Добрейшей души Мегаманьяк
***********
Group: Металариец
Posts: 1,586
Releases: 0
From: Bashkortostan, Өфө
On Forums: 12 years 1 month
Thanks: 698 time(s)
Russian Federation


Свежий QUASARBORN порадовал. Кажись чуток жизнеутверждающе звучит музыка, по сравнению с прошлым.


Thanks:
Go to the top of the page
  Insert nick Quick quote
+Quote Post
post Jan 24 2020, 09:08:06
Post #3

Четыре Литра
****
Group: Металариец
Posts: 330
Releases: 0
From: Ташкент
On Forums: 12 years 2 months
Thanks: 96 time(s)
Uzbekistan


В клипе Атлас песня очень хорошая. Не знаю, как альбом, буду слушать.


Thanks:
Go to the top of the page
  Insert nick Quick quote
+Quote Post
post Jan 30 2020, 06:41:02
Post #4

мизантроп же
**********
Group: Металариец
Posts: 1,066
Releases: 8
From: Малаховка
On Forums: 13 years 1 month
Thanks: 1152 time(s)
Russian Federation


Классное музло, как и раньше. Оч понравилось. Есть прям бомбовые треки.


Thanks:
Go to the top of the page
  Insert nick Quick quote
+Quote Post
post Feb 6 2020, 15:12:49
Post #5

Schuldinerist
**************
Group: Металариец
Posts: 10,527
Releases: 33
From:
On Forums: 12 years 11 months
Thanks: 6731 time(s)
Russian Federation


Отличное продолжение дебютника 2018 года.
Представьте, что к музыке Shah добавился вокал Валеры Гаины.... шутка... забудьте

Сербы почерпнули очень много из мирового наследия thrash metal, проскакивают аллюзии на Megadeth и Annihilator.. наш Шах опять же.
Гитары играют приятно плотно, технично и мелодично. Высокий певучий вокал облегчает саунд почти до состояния speed metal.
8-9/10


Thanks:
Go to the top of the page
  Insert nick Quick quote
+Quote Post

Reply to this topicStart new topic
2 User(s) are reading this topic (2 Guests and 0 Anonymous Users)
0 Members:

 



- Lo-Fi Version Support form
Copyrights and abuse reports form
Time is now: 8th April 2020 - 17:18:27