Welcome Guest ( Log In | Register )

> Apokryphon - Subterra (2020), Progressive Black Metal
post Jan 23 2020, 16:28:19
Post #1

Правь статус, ####!111
**************
Group: Металариец
Posts: 5,168
Releases: 1566
From: Brazil
On Forums: 12 years 2 months
Thanks: 63955 time(s)
Brazil


(IMG:https://metalarea.org/images/audiocovers/2020_Jan/acov_tid333012_thumb.jpg)

*Artist: Apokryphon
*Album: Subterra
*Year: 2020
*Genre: Progressive Black Metal
*Country: Switzerland (IMG:https://metalarea.org/forum/style_images/flags/Switzerland.png)
*Format: mp3@CBR320kbps
*Size: 140MB

Tracklist:
1. Evangelion of the Serpent
2. The Naasene Psalm
3. Sand Ghosts
4. The Great Ignorance
5. Anthropos
6. Nag Hammadi
7. Taxidermia
8. Subterra (bonus track)
******************************
Total playing time: 1:00:28



Extended info
Apokryphon is the new project by Zorgh, Darkspace founding member and bassist. This new band has nothing to do with Darkspace, hence it would be inappropriate to make any kind of comparison between the two. Quite the opposite, after twenty years crafting a certain kind of music (and a certain kind of black metal), the Bern-based musician wanted to explore something different, and this is why you should expect a totally distant approach to both themes and sounds. The multi-instrumentalist even chose a new alias for herself, here going by the name of Ophis.

We asked Ophis herself to express her thoughts about this new adventure she embarked on, which you can read hereunder: Apokryphon literally means "hidden" or "dark" and refers to the apocrypha, old esoteric scriptures written by a variety of people that were either actively hidden or controversial and therefore excluded from public viewing or biblical content, for example. Many of them were found to be heretical, some were related to gnosticism. Many of them were written in the geographical area of the Middle East about 2000 years ago. ”Subterra" thematically relates to themes treated in the apocrypha. Musically, it is rooted in black metal, decorated with oriental spices. It is an expression of my own personal and musical identity and themes that touch me generally. I have chosen to liberally interpret both apocryphal texts and black metal in my very own way. And with "Djinn" I have found the perfect voice to interpret most of the vocal aspects.

After more than a decade of cooperation, at Avantgarde Music we have the utmost respect for the Swiss trio, and when one of the few women in the black metal world expressed her wish to produce an (almost) solo album we knew we wanted to give her our full support before even hearing a single note. Once we had Subterra in our hands, we were but proven right.

We hope you’ll find Apokryphon as interesteing as fascinating as we did. Subterra is scheduled for release on the 14th of February, 2020.


Technical info
(IMG:https://metalarea.org/images/spectrogram/2020_Jan/36075e02ea7b5bf554f852d144e5007f.png)
Input File: 03 Sand Ghosts.mp3
Channels : 2
Sample Rate : 44100
Precision : 16-bit
Duration : 00:04:54.08 = 12968752 samples = 22055.7 CDDA sectors
File Size : 11.8M
Bit Rate : 320k
Sample Encoding: MPEG audio (layer I, II or III)
Comments :
Title=Sand Ghosts
Artist=Apokryphon
Album=Subterra
Tracknumber=3
Year=2020



Register


Go to the top of the page
  Insert nick Quick quote
+Quote Post
 
Start new topic
Replies (1 - 3)
post Jan 25 2020, 05:38:06
Post #2

Grind the Human Scum
**********
Group: Металариец
Posts: 1,077
Releases: 18
On Forums: 17 years 3 months
Thanks: 1150 time(s)
Russian Federation


откровенно слабый релиз, все атмосферное месиво еще куда ни шло, но когда начинается гитарная часть уши просто вянут. Второй диз бабище из даркспейс, первый за неприезд оных весной прошлого года.
Субтерра просит корзины.
Go to the top of the page
  Insert nick Quick quote
+Quote Post
post Jan 25 2020, 10:01:50
Post #3

Black is beautiful
***********
Group: Металариец
Posts: 1,979
Releases: 4
On Forums: 12 years 1 month
Thanks: 445 time(s)
Unknown


Project by Zorgh from Darkspace


Thanks:
(1) Occultas,
Go to the top of the page
  Insert nick Quick quote
+Quote Post
post Feb 25 2020, 21:40:55
Post #4

Русь Понад Усе!
**************
Group: Металариец
Posts: 4,377
Releases: 15
From: Украина
On Forums: 16 years 7 months
Thanks: 1873 time(s)
Ukraine


Субъективно, но мне понравилось. Не самое плохое, что может произойти с сайд проектом. В общем все ровно и сочно.
Go to the top of the page
  Insert nick Quick quote
+Quote Post

Reply to this topicStart new topic
1 User(s) are reading this topic (1 Guests and 0 Anonymous Users)
0 Members:

 



- Lo-Fi Version Support form
Copyrights and abuse reports form
Time is now: 15th April 2024 - 05:27:55