Welcome Guest ( Log In | Register )

> И неформату есть предел.

Рэп/хип-хоп/шансон/поп удаляются. Для них есть свои порталы.

 
Reply to this topicStart new topic
> Grunt - Kraniometria [ep] (2019), Noise/Harsh Noise (D25)
post Jan 23 2020, 17:09:04
Post #1

Group: Подсевший
Posts: 14
Releases: 1
On Forums: 4 months 4 weeks
Thanks: 42 time(s)
Unknown


(IMG:https://metalarea.org/images/audiocovers/2020_Jan/acov_tid333013_thumb.jpg)

*Artist: Grunt
*Album: Kraniometria [ep]
*Year: 2019
*Genre: Noise/Harsh Noise
*Country: Finland (IMG:https://metalarea.org/forum/style_images/flags/Finland.png)
*Format: mp3@CBR320kbps
*Size: 44MB

Tracklist:
01. Eschatological Uterus 03:59
02. Sex-Paralys-Appeal 01:49
03. Kraniometria 15:09
******************************
Total playing time: 20:57

(IMG:https://metalarea.org/images/youtube.png)

Extended info
For many years, Grunt have published mainly material leaning to power electronics / industrial noise. There has always been harsh noise element in Grunt. "Kraniometria" is combination of many known elements of Grunt noise: Physicality, analogue rawness, electronic sharpness, yet it is much more than you have formerly heard. From hours of recordings and experiments over 2018, new tools and methods were applied. Result is all instrumental, all harsh, most often free flowing fast paced modulations. It is step to different direction from grinding loops and acoustic metal junks often dominating in the past. Grunt shows it is still able to renew it's approach after over 25 years of work.


Technical info
(IMG:https://metalarea.org/images/spectrogram/2020_Jan/d16d07819190e5f8a41cf9c13c335a42.png)
Input File: 01. Eschatological Uterus.mp3
Channels : 2
Sample Rate : 44100
Precision : 16-bit
Duration : 00:03:59.36 = 10555952 samples = 17952.3 CDDA sectors
File Size : 9.73M
Bit Rate : 325k
Sample Encoding: MPEG audio (layer I, II or III)
Comments :
Title=Eschatological Uterus
Artist=Grunt
Album=Kraniometria
Tracknumber=01
Year=2019
Genre=Noise



Register


Go to the top of the page
  Insert nick Quick quote
+Quote Post

Reply to this topicStart new topic
1 User(s) are reading this topic (1 Guests and 0 Anonymous Users)
0 Members:

 



- Lo-Fi Version Support form
Copyrights and abuse reports form
Time is now: 28th May 2020 - 23:42:31