Welcome Guest ( Log In | Register )

> И неформату есть предел.

Рэп/хип-хоп/шансон/поп удаляются. Для них есть свои порталы.

 
Reply to this topicStart new topic
> Pearls To Swine - Light And Shade (1999), Rock
post Jan 24 2020, 14:01:42
Post #1

Правь статус, ####!111
**************
Group: Металариец
Posts: 6,358
Releases: 5850
From: Lithuania
On Forums: 13 years 5 months
Thanks: 43489 time(s)
Lithuania


(IMG:https://metalarea.org/images/audiocovers/2020_Jan/acov_tid333042_thumb.jpg)

*Artist: Pearls To Swine
*Album: Light And Shade
*Year: 1999
*Genre: Rock
*Country: Guyana (IMG:https://metalarea.org/forum/style_images/flags/Guyana.png)
*Format: mp3@VBR246kbps
*Size: 77MB

Tracklist:
1. Tile Junkie (Explicit lyrics) 03:55
2. Bird of the flame 05:55
3. Stone cold 03:10
4. Ritualistic holocaust 03:16
5. Socio-love enraged 07:06
6. Machine of death (Explicit lyrics) 05:15
7. Ishun (Explicit lyrics) 02:54
8. Black sex (Explicit lyrics) 02:06
9. Taste the whip 03:10
10. Sanctum 06:07
******************************
Total playing time: 42:54


(IMG:https://metalarea.org/images/youtube.png)

Technical info
(IMG:https://metalarea.org/images/spectrogram/2020_Jan/921991439ff218a169be52e282a18e90.png)
Input File: 02 Bird of the flame.mp3
Channels : 2
Sample Rate : 44100
Precision : 16-bit
Duration : 00:05:55.13 = 15661409 samples = 26635 CDDA sectors
File Size : 11.3M
Bit Rate : 254k
Sample Encoding: MPEG audio (layer I, II or III)
Comments :
Title=Bird of the flame
Artist=Pearls to swine
Album=Light & shade
Tracknumber=2
Year=1998
Genre=17



Register


Thanks:
Go to the top of the page
  Insert nick Quick quote
+Quote Post

Reply to this topicStart new topic
1 User(s) are reading this topic (1 Guests and 0 Anonymous Users)
0 Members:

 



- Lo-Fi Version Support form
Copyrights and abuse reports form
Time is now: 1st April 2020 - 16:02:32