Welcome Guest ( Log In | Register )

> Acid Mammoth - Under Acid Hoof (2020), Doom Metal
post Jan 24 2020, 19:01:06
Post #1

Каждое ваше "Спасибо" помогает мне понять, что я делаю новости не напрасно.
**************
Group: Металариец
Posts: 2,507
Releases: 2222
From: Одесса
On Forums: 11 years 10 months
Thanks: 20601 time(s)
Ukraine


(IMG:http://metalarea.org/images/audiocovers/2020_Jan/acov_tid333062_thumb.jpg)

*Artist: Acid Mammoth
*Album: Under Acid Hoof
*Year: 2020
*Genre: Doom Metal
*Country: Greece (IMG:http://metalarea.org/forum/style_images/flags/Greece.png)
*Format: mp3@CBR320kbps
*Size: 84MB

Tracklist:
1.Them! 04:38
2.Tree of Woe 09:10
3.Tusks of Doom 05:50
4.Jack the Riffer 07:30
5.Under Acid Hoof 08:10
******************************
Total playing time: 35:18



Extended info
Line - up:

Dimosthenis Varikos - Bass (ex-Black Path)
Chris Babalis - Guitars, Vocals
Marios Louvaris - Drums
Christos Babalis - Guitars

(IMG:https://www.metal-archives.com/images/3/5/4/0/3540432370_photo.jpg?3245)


Technical info
(IMG:http://metalarea.org/images/spectrogram/2020_Jan/252b4b07572568ffa1056fcd9a29b0ce.png)
Input File: 04 Jack the Riffer.mp3
Channels : 2
Sample Rate : 44100
Precision : 16-bit
Duration : 00:07:30.12 = 19850160 samples = 33758.8 CDDA sectors
File Size : 18.0M
Bit Rate : 320k
Sample Encoding: MPEG audio (layer I, II or III)
Comments :
Title=Jack the Riffer
Artist=Acid Mammoth
Album=Under Acid Hoof
Tracknumber=4
Year=2020
Genre=Doom Metal



Register


Go to the top of the page
  Insert nick Quick quote
+Quote Post
 
Start new topic
Replies (1 - 6)
post Jan 24 2020, 22:14:10
Post #2

Group: Дух
Posts: 6
Releases: 0
On Forums: 1 year 2 weeks
Thanks: 1 time(s)
Unknown


Чем то Yob напомнило
Go to the top of the page
  Insert nick Quick quote
+Quote Post
post Jan 25 2020, 20:57:16
Post #3

Правь статус, ####!111
**************
Group: Металариец
Posts: 45,785
Releases: 705
On Forums: 10 years 10 months
Thanks: 37835 time(s)
Russian Federation


Отличный. Риффы цеплючие, вокал харизматичен.

Свежо и незаежженно.

Больше бы такого думчанского.


Thanks:
(1) Leshiy666,
Go to the top of the page
  Insert nick Quick quote
+Quote Post
post Jan 27 2020, 18:17:21
Post #4

Правь статус, ####!111
**************
Group: Металариец
Posts: 45,785
Releases: 705
On Forums: 10 years 10 months
Thanks: 37835 time(s)
Russian Federation


Вкатило по царски. Саббатовщина конечно прёт, но так ли это плохо когда у группы есть свое лицо.

Мощно и круто, в меру раздолбайски и отвязно, но при этом без шутовства.

Отличный проникновенный релиз.

Второй после Кирка метал, который решает в этом году.


Thanks:
(1) russ777,
Go to the top of the page
  Insert nick Quick quote
+Quote Post
post Jan 30 2020, 20:21:53
Post #5

Семь Литров
*******
Group: Металариец
Posts: 750
Releases: 0
From: South Of Heaven
On Forums: 12 years 8 months
Thanks: 351 time(s)
Ukraine


Хороший альбомчик, интересный (IMG:style_emoticons/default/metaler.gif)
Релизёру (IMG:style_emoticons/default/9.gif) (IMG:style_emoticons/default/9.gif)


Thanks:
Go to the top of the page
  Insert nick Quick quote
+Quote Post
post Feb 3 2020, 05:30:32
Post #6

i listen to black metal
**************
Group: Металариец
Posts: 2,559
Releases: 132
From: Москва-Лианозово
On Forums: 13 years 3 months
Thanks: 2134 time(s)
Russian Federation


а чего тут слушать-17 года был традиционально-шикарен))))
Go to the top of the page
  Insert nick Quick quote
+Quote Post
post Feb 11 2020, 19:31:56
Post #7

Full-of-Hate
**************
Group: Металариец
Posts: 3,495
Releases: 0
From: Moscow
On Forums: 10 years 9 months
Thanks: 3188 time(s)
Russian Federation


Не разделяю восторгов. Хайповый релиз на винтажной моде, которая хоть и переживает сейчас лучшие свои годы, не всегда дает нам талантливые команды и релизы.
Например, такие как Acid Mammoth. Это просто стилизация, лишенная композиторского мастерства и искры вдохновения.


Thanks:
(1) avather,
Go to the top of the page
  Insert nick Quick quote
+Quote Post

Reply to this topicStart new topic
2 User(s) are reading this topic (2 Guests and 0 Anonymous Users)
0 Members:

 



- Lo-Fi Version Support form
Copyrights and abuse reports form
Time is now: 8th April 2020 - 17:34:16