Welcome Guest ( Log In | Register )

> И неформату есть предел.

Рэп/хип-хоп/шансон/поп удаляются. Для них есть свои порталы.

 
Reply to this topicStart new topic
> Passion - Passion (2020), Heavy Metal/Hard Rock (D6)
post Jan 24 2020, 19:32:27
Post #1

Маньяк
**********
Group: Металариец
Posts: 1,353
Releases: 231
On Forums: 11 years 8 months
Thanks: 4747 time(s)
Russian Federation


(IMG:http://metalarea.org/images/audiocovers/2020_Jan/acov_tid333065_thumb.jpg)

*Artist: Passion
*Album: Passion
*Year: 2020
*Genre: Heavy Metal/Hard Rock
*Country: United Kingdom (IMG:http://metalarea.org/forum/style_images/flags/United%20Kingdom.png)
*Format: mp3@CBR320kbps
*Size: 92MB

Tracklist:
01. Intensity
02. Trespass On Love
03. Too Bad For Baby
04. Lost In The Dark
05. Back
06. Victims Of Desire
07. We Do What We Want
08. Built To Please
09. She Bites Hard
10. Big Game
******************************
Total playing time: 40:07

Extended info




Lineup:
Lion Ravarez - Vocals
Chance Vanderlain - Guitar
Weston James - Bass
Bobby Laker - Drums


Technical info
(IMG:http://metalarea.org/images/spectrogram/2020_Jan/9cd1e20eb928b08b283dcd4de2b7da8e.png)
Input File: 01-Intensity.mp3
Channels : 2
Sample Rate : 44100
Precision : 16-bit
Duration : 00:04:32.58 = 12020734 samples = 20443.4 CDDA sectors
File Size : 10.9M
Bit Rate : 320k
Sample Encoding: MPEG audio (layer I, II or III)
Comments :
Title=Intensity
Artist=Passion
Album=Passion
Tracknumber=1
Year=2020
Genre=Heavy Metal



Register


Go to the top of the page
  Insert nick Quick quote
+Quote Post

Reply to this topicStart new topic
1 User(s) are reading this topic (1 Guests and 0 Anonymous Users)
0 Members:

 



- Lo-Fi Version Support form
Copyrights and abuse reports form
Time is now: 4th August 2020 - 11:46:32