Welcome Guest ( Log In | Register )

> И неформату есть предел.

Рэп/хип-хоп/шансон/поп удаляются. Для них есть свои порталы.

 
Reply to this topicStart new topic
> Stillife - XX - Live [live] (2018), Gothic Rock/Darkwave (D5)
post Jan 25 2020, 11:35:35
Post #1

Три Литра
***
Group: Завсегдатай
Posts: 229
Releases: 8
From: Санкт-Петербург
On Forums: 14 years 2 months
Thanks: 800 time(s)
Russian Federation


(IMG:http://metalarea.org/images/audiocovers/2020_Jan/acov_tid333076_thumb.jpg)

*Artist: Stillife
*Album: XX - Live [live]
*Year: 2018
*Genre: Gothic Rock/Darkwave
*Country: Russian Federation (IMG:http://metalarea.org/forum/style_images/flags/Russian%20Federation.png)
*Format: mp3@VBR243kbps
*Size: 126MB

Tracklist:
01. When Lights Go Outside... 03:28
02. Last Hope 04:43
03. The Wait 04:22
04. Fragile 03:39
05. Remember Me 04:30
06. In Memory 03:13
07. Relief 03:54
08. Destiny 04:36
09. Living For You 04:38
10. Never Crossing Lines 05:08
11. Black Lambs Three 03:49
12. In The Hut 04:36
13. Ongoing Overrides 04:17
14. Shattered 04:52
15. Timeless 04:34
16. Only Silence MMXVIII 06:13
******************************
Total playing time: 1:10:32

Preview 1

Technical info
(IMG:http://metalarea.org/images/spectrogram/2020_Jan/d845b0ce854b46424657c76941dee5fc.png)
Input File: 02 - Last Hope.mp3
Channels : 2
Sample Rate : 44100
Precision : 16-bit
Duration : 00:04:42.52 = 12459132 samples = 21189 CDDA sectors
File Size : 8.93M
Bit Rate : 253k
Sample Encoding: MPEG audio (layer I, II or III)
Comments :
Title=Last Hope
Artist=Stillife
Album=XX - Live
Tracknumber=02
Year=2018
Genre=Darkwave



Register


Go to the top of the page
  Insert nick Quick quote
+Quote Post

Reply to this topicStart new topic
1 User(s) are reading this topic (1 Guests and 0 Anonymous Users)
0 Members:

 



- Lo-Fi Version Support form
Copyrights and abuse reports form
Time is now: 4th August 2020 - 12:37:55