Welcome Guest ( Log In | Register )

> Various Artists - Necropathologic Sound Compilation [compilation] (2019), Goregrind/Pornogrind/Noisegrind (D2160)
post Jan 25 2020, 14:05:13
Post #1

Serial Uploader
Group Icon
Group: V.I.P
Posts: 37,613
Releases: 35785
From: Lithuania
On Forums: 13 years 3 months
Thanks: 433584 time(s)
Lithuania


(IMG:http://metalarea.org/images/audiocovers/2020_Jan/acov_tid333082_thumb.jpg)

*Artist: Various Artists
*Album: Necropathologic Sound Compilation [compilation]
*Year: 2019
*Genre: Goregrind/Pornogrind/Noisegrind
*Country: Many (IMG:http://metalarea.org/forum/style_images/flags/Many.png)
*Format: mp3@CBR320kbps
*Size: 158MB

Tracklist:
Enema Jizz:
01. Untitled 1 00:23
02. Untitled 2 00:26
Paraphimosis:
03. Organ Dealer 01:31
Death Hark Nark:
04. Verdosa En Los Genitales Masculinos 00:22
05. Brain Infested Maggots 00:28
Aromas Of An Corpse:
06. Rotten And Melted 01:00
Parafilia Grotesca:
07. Picardias De Una Cholita 02:41
08. Ayer Cague Y Me Acorde De Ti 02:35
CxExGxBxCxUxMxVxIx:
09. Edema Indurado Con Esclerosis 00:55
10. Sexo Incestuoso Entre Hermanos Con Obesidad Morbida 01:20
Triquina De Cerdo:
11. No Soy Gay Pero Me Gusta Kudai 03:00
12. Regaytoon Culeo Intenso 02:18
I Hate Your Guts:
13. Dick Tick 00:27
14. Sex Glove 00:20
Intracranial Hemorrhage Trauma:
15. 2 Tracks 02:33
Svlfvr Kvfvr:
16. Unreleased Gorbage 1 00:31
17. Unreleased Gorbage 2 00:46
Mionecrosis Clostridial:
18. Armin Meiwes 00:26
19. Desmembrando Metaleros 00:26
Intestinal Simphony:
20. Casi Me Muero Cagando 03:13
21. 47 Segundos De Agonia 00:44
Señor Del Estiercol:
22. Señor Del Estiercol 00:35
23. Pozo De Mierda 00:29
Bubble Butt Teen Command:
24. Desayuno Rectal 03:06
25. Cyber Orgia Con Jovencitas Japonesas 01:03
CxPxAxSxZxGxCxCx:
26. Transexuales Alienigenas Aterrorizan Los Campos Secuestrando Toros Para Su Satisfacción Anal 01:04
27. Visceras Humanas Asadas Al Estilo Norteño Alterado De Botas Y A Caballo 01:50
Cum Book:
28. Dirty Talking Whore 01:34
29. Wrong Hole 01:06
Crack Addict Babies:
30. Track Shooting Heroin Into A Brain Tumor 01:10
Human Aberration:
31. Slyme 02:21
32. Toxic Mac 01:38
RxHx:
33. Subsequent Necrosis Of Fetal Tissuehypertensive Hemorrhage In The Brainstemulcerative Colitisscrotal Lymphedema Esophagogast 00:52
34. Scrotal Acid Attack 00:26
Necrologyst:
35. Deapitated 02:11
36. Regurgitated Worms 03:10
Gonorrea:
37. Donkey Cock 01:09
38. Cow 01:25
Ateriovenous Stomachal Malformation:
39. 5 Tracks 01:26
Peptic Testicle Vomitus:
40. 5 Tracks 02:22
Ulceropulcopronecrobiovulpectomy:
41. Enanoaxilismoexcrementuomeningocloriandrusipectomiaencinepolislacapitaldelcine 00:24
42. Ecxitanteejecuciónaraterohijodeputacondenadoalsufrimientoeternoytorturasodomizadallevadaacaboporunarameraleprosa 00:32
Ektopia:
43. Filmando Porno Gratis 01:08
44. Orgasmo Simultaneo 02:03
WxAxIxFxUx:
45. Intro Maked In A Bathroom Of The Old Man With Sida 00:19
46. I Have 1 Gorenoise Project Because My Fathers Don't Give Attention 00:18
Organic Fluids Used For Extensive Pervert And Forensic Imagination:
47. Enema 00:49
Medical Waste:
48. Scalped With Glass 00:32
49. Lobotomized And Sodomized 01:02
Urticaria Penicilina Maligna:
50. Raped By A Pseudogrinder 01:19
Autistic Octopus Clan:
51. Appapu The Rock 00:26
52. Blubby The Awesome Whale 00:41
******************************
Total playing time: 1:04:55







Technical info
(IMG:http://metalarea.org/images/spectrogram/2020_Jan/4aa96252fb1168ef6e432411eb081a5f.png)
Input File: 02. Untitled 2.mp3
Channels : 2
Sample Rate : 44100
Precision : 16-bit
Duration : 00:00:26.18 = 1154362 samples = 1963.2 CDDA sectors
File Size : 1.29M
Bit Rate : 394k
Sample Encoding: MPEG audio (layer I, II or III)
Comments :
Title=Enema Jizz - Untitled 2
Artist=Various Artists
Album=Necropathologic Sound Compilation
Tracknumber=2
Year=2019



Register


Go to the top of the page
  Insert nick Quick quote
+Quote Post
 
Start new topic
Replies (1 - 1)
post Jul 29 2020, 17:37:48
Post #2

Group: Подсевший
Posts: 20
Releases: 0
From: Москва
On Forums: 11 years 8 months
Thanks: 0 time(s)
Russian Federation


Можно перезалить, пожалуйста? Обе ссылки не рабочие. (IMG:style_emoticons/default/smile2.gif)
Go to the top of the page
  Insert nick Quick quote
+Quote Post

Reply to this topicStart new topic
1 User(s) are reading this topic (1 Guests and 0 Anonymous Users)
0 Members:

 



- Lo-Fi Version Support form
Copyrights and abuse reports form
Time is now: 27th September 2021 - 06:01:45