Welcome Guest ( Log In | Register )

> И неформату есть предел.

Рэп/хип-хоп/шансон/поп удаляются. Для них есть свои порталы.

 
Reply to this topicStart new topic
> Various Artists - Metalwave Compilation - Altars Of Synthness [compilation] (2014), Synthwave/Retrowave
post Jan 26 2020, 21:08:05
Post #1

Два Литра
**
Group: Завсегдатай
Posts: 161
Releases: 6
From: Санкт-Петербург
On Forums: 13 years 8 months
Thanks: 442 time(s)
Russian Federation


(IMG:http://metalarea.org/images/audiocovers/2020_Jan/acov_tid333113_thumb.jpg)

*Artist: Various Artists
*Album: Metalwave Compilation - Altars Of Synthness [compilation]
*Year: 2014
*Genre: Synthwave/Retrowave
*Country: Many (IMG:http://metalarea.org/forum/style_images/flags/Many.png)
*Format: mp3@CBR320kbps
*Size: 185MB

Tracklist:
01. Dan Terminus - Call From The Grave (Bathory) 04:11
02. Vincenzo Salvia - Dirge For November (Opeth) 06:49
03. Fixions - Under The Surface (Morgoth) 04:36
04. Beatbox Machinery - The Gate Of Inanna (Beherit) 04:36
05. Antroid Aubroid - Nostalgia (Gorguts) 06:32
06. Nitelight - Crystal Mountain (Death) 04:26
07. Mach Rider - Dead Skin Mask (Slayer) 05:00
08. Dan Terminus - Genital Grinder II (Carcass) 02:52
09. The Deathless - Raining Blood (Slayer) 03:46
10. Fixions - Tomhet (Burzum) 05:52
11. A Space Love Adventure - Transilvanian Hunger (Darkthrone) 05:04
12. Drifting Dreamer - Freezing Moon (Mayhem) 03:54
13. Denovomutans - The Cry Of Mankind (My Dying Bride) 04:49
14. Hydraulic Anus - You Suffer (Napalm Death) 00:05
******************************
Total playing time: 1:02:52



Extended info
+ scans


Technical info
(IMG:http://metalarea.org/images/spectrogram/2020_Jan/5e5996a98e0744a1f2e90af66f849c50.png)
Input File: 01 - Dan Terminus - Call From The Grave (Bathory).mp3
Channels : 2
Sample Rate : 44100
Precision : 16-bit
Duration : 00:04:11.16 = 11076068 samples = 18836.9 CDDA sectors
File Size : 10.3M
Bit Rate : 327k
Sample Encoding: MPEG audio (layer I, II or III)
Comments :
Title=Dan Terminus: Call From The Grave (Bathory)
Artist=Compilation
Album=Metalwave Compilation - Altars Of Synthness
Tracknumber=01
Year=2014
Genre=Synthwave/Retrowave



Register


Go to the top of the page
  Insert nick Quick quote
+Quote Post

Reply to this topicStart new topic
1 User(s) are reading this topic (1 Guests and 0 Anonymous Users)
0 Members:

 



- Lo-Fi Version Support form
Copyrights and abuse reports form
Time is now: 17th February 2020 - 08:32:59