Welcome Guest ( Log In | Register )

> И неформату есть предел.

Рэп/хип-хоп/шансон/поп удаляются. Для них есть свои порталы.

> Goblin Hovel - Nothing Like Our Fantasy [ep] (2019), Folk/Doom Metal, Neofolk (D8)
post Jan 27 2020, 18:20:38
Post #1

Каждое ваше "Спасибо" помогает мне понять, что я делаю новости не напрасно.
**************
Group: Металариец
Posts: 2,489
Releases: 2206
From: Одесса
On Forums: 11 years 10 months
Thanks: 20515 time(s)
Ukraine


(IMG:http://metalarea.org/images/audiocovers/2020_Jan/acov_tid333155_thumb.jpg)

*Artist: Goblin Hovel
*Album: Nothing Like Our Fantasy [ep]
*Year: 2019
*Genre: Folk/Doom Metal, Neofolk
*Country: United States (IMG:http://metalarea.org/forum/style_images/flags/United%20States.png)
*Format: mp3@CBR320kbps
*Size: 65MB

Tracklist:
1.Urgischk 04:33
2.A Night at the Festival 04:10
3.Forests of Painted Bone 05:05
4.Le Château Hanté 08:07
5.The Daemon Engine 05:33
******************************
Total playing time: 27:28



Extended info
Line - up:

Goblin - Guitars, Cello, Bass, Mandolin, Cajon, Djembe, Cymbals, Killa kans, Vuvuzela, Mouth harp, Vocals (Eira, Mephistoph, ex-Nazgûl, ex-Armageddon, Shrine of Burls, ex-Gnome Hut, ex-Monolith)


Technical info
(IMG:http://metalarea.org/images/spectrogram/2020_Jan/0702c14083e365bb9711c92629d10028.png)
Input File: 02. A Night At The Festival.mp3
Channels : 2
Sample Rate : 44100
Precision : 16-bit
Duration : 00:04:10.56 = 11049564 samples = 18791.8 CDDA sectors
File Size : 10.1M
Bit Rate : 323k
Sample Encoding: MPEG audio (layer I, II or III)
Comments :
Title=A Night At The Festival
Artist=Goblin Hovel
Album=Nothing Like Our Fantasy (EP)
Tracknumber=2
Year=2019
Genre=Folk/Doom Metal, Neofolk



Register


Go to the top of the page
  Insert nick Quick quote
+Quote Post
 
Start new topic
Replies (1 - 1)
post Feb 9 2020, 09:37:21
Post #2

Group: Подсевший
Posts: 29
Releases: 0
From: Бийск
On Forums: 2 years 3 months
Thanks: 6 time(s)
Russian Federation


Прикольная темка!
Вместо дума я бы сюда какое-нибудь death country вписал. (IMG:style_emoticons/default/1488.gif)
Go to the top of the page
  Insert nick Quick quote
+Quote Post

Reply to this topicStart new topic
2 User(s) are reading this topic (2 Guests and 0 Anonymous Users)
0 Members:

 



- Lo-Fi Version Support form
Copyrights and abuse reports form
Time is now: 7th April 2020 - 04:31:18