Welcome Guest ( Log In | Register )

> И неформату есть предел.

Рэп/хип-хоп/шансон/поп удаляются. Для них есть свои порталы.

 
Reply to this topicStart new topic
> Kaviar Kavalier - Hotel Inkontinental (2019), Atmospheric/Industrial Metal/Electronica (D6)
post Jan 28 2020, 14:08:35
Post #1

Правь статус, ####!111
**************
Group: Металариец
Posts: 6,526
Releases: 6012
From: Lithuania
On Forums: 13 years 9 months
Thanks: 45357 time(s)
Lithuania


(IMG:https://metalarea.org/images/audiocovers/2020_Jan/acov_tid333177_thumb.jpg)

*Artist: Kaviar Kavalier
*Album: Hotel Inkontinental
*Year: 2019
*Genre: Atmospheric/Industrial Metal/Electronica
*Country: Czech Republic (IMG:https://metalarea.org/forum/style_images/flags/Czech%20Republic.png)
*Format: mp3@CBR320kbps
*Size: 110MB

Tracklist:
1. Hotel Inkontinental
2. FKK Zone
3. Miserere
4. Fotopast
5. Na školním záchodě
6. Nikdo tu není
7. Můj úd není v pořádku
8. Exstirpace karunkuly
9. Dogging
10. Fly to Mandalay
11. Něco zlého se tu chystá
12. Zuzano
******************************
Total playing time: 47:48

(IMG:https://metalarea.org/images/myspace.png)

Technical info
(IMG:https://metalarea.org/images/spectrogram/2020_Jan/e5813c4f2522aad642db8ed3d3dbb430.png)
Input File: 02 FKK Zone.mp3
Channels : 2
Sample Rate : 44100
Precision : 16-bit
Duration : 00:03:51.03 = 10188423 samples = 17327.2 CDDA sectors
File Size : 9.33M
Bit Rate : 323k
Sample Encoding: MPEG audio (layer I, II or III)
Comments :
Title=FKK Zone
Artist=Kaviar Kavalier
Album=Hotel Inkontinental
Tracknumber=02
Year=2019
Genre=Metal



Register


Go to the top of the page
  Insert nick Quick quote
+Quote Post

Reply to this topicStart new topic
1 User(s) are reading this topic (1 Guests and 0 Anonymous Users)
0 Members:

 



- Lo-Fi Version Support form
Copyrights and abuse reports form
Time is now: 4th August 2020 - 12:23:27