Welcome Guest ( Log In | Register )

> И неформату есть предел.

Рэп/хип-хоп/шансон/поп удаляются. Для них есть свои порталы.

 
Reply to this topicStart new topic
> Filth Pig - The Ominous Euphoria (2020), Industrial Metal
post Jan 30 2020, 17:51:52
Post #1

Каждое ваше "Спасибо" помогает мне понять, что я делаю новости не напрасно.
**************
Group: Металариец
Posts: 2,449
Releases: 2160
From: Одесса
On Forums: 11 years 9 months
Thanks: 20021 time(s)
Ukraine


(IMG:http://metalarea.org/images/audiocovers/2020_Jan/acov_tid333272_thumb.jpg)

*Artist: Filth Pig
*Album: The Ominous Euphoria
*Year: 2020
*Genre: Industrial Metal
*Country: Germany (IMG:http://metalarea.org/forum/style_images/flags/Germany.png)
*Format: mp3@CBR320kbps
*Size: 99MB

Tracklist:
1.Solipsism Drug 05:34
2.Flesh Wounds 05:00
3.Share the Needle (With Someone You Love) 06:54
4.Choir of Crippled Children 04:12
5.Arachnoid Mater Skinning 04:00
6.White Trash Vampires 05:08
7.The Ominous Euphoria 06:48
8.Just a Piece of Meat 04:44
******************************
Total playing time: 42:20



Extended info
Line - up:
Johannes Tüllner - All instruments, Vocals (Buried in a Womb, ex-Blooddawn, ex-Eternal Wisdom, ex-Totgeburt, ex-Van Teel)

Guest/Session:
Christian Grund - Intro (tracks 1, 7) (Blooddawn)


Technical info
(IMG:http://metalarea.org/images/spectrogram/2020_Jan/ccd3e2170c20833135c08d757fda05eb.png)
Input File: 06. White Trash Vampires.mp3
Channels : 2
Sample Rate : 44100
Precision : 16-bit
Duration : 00:05:08.08 = 13586416 samples = 23106.1 CDDA sectors
File Size : 12.3M
Bit Rate : 320k
Sample Encoding: MPEG audio (layer I, II or III)
Comments :
Title=White Trash Vampires
Artist=Filth Pig
Album=The Ominous Euphoria
Tracknumber=6
Year=2020
Genre=Industrial Metal



Register


Go to the top of the page
  Insert nick Quick quote
+Quote Post

Reply to this topicStart new topic
1 User(s) are reading this topic (1 Guests and 0 Anonymous Users)
0 Members:

 



- Lo-Fi Version Support form
Copyrights and abuse reports form
Time is now: 28th March 2020 - 19:43:32