Welcome Guest ( Log In | Register )

> Satan Worship - Teufelssprache (2019), Blackened Thrash/Speed Metal
post Jan 30 2020, 21:43:58
Post #1

Правь статус, ####!111
**************
Group: Металариец
Posts: 21,968
Releases: 15162
From: Г.Харьков
On Forums: 8 years 3 weeks
Thanks: 275338 time(s)
Unknown


(IMG:http://metalarea.org/images/audiocovers/2020_Jan/acov_tid333276_thumb.jpg)

*Artist: Satan Worship
*Album: Teufelssprache
*Year: 2019
*Genre: Blackened Thrash/Speed Metal
*Country: International (IMG:http://metalarea.org/forum/style_images/flags/International.png)
*Format: mp3@CBR320kbps
*Size: 76MB

Tracklist:
01. Death Incarnate
02. Under the Sign of the Reaper
03. The Last Day of Paul John Knowles
04. Satanik Werevolves
05. Motherfuckers from the Apokalipse
06. La Catedral
07. Mass Murder
08. Antichrist
09. Aokigahra
******************************
Total playing time: 36:01



Extended info
Marc "Speedy" Reign Drums
See also: Leather (live), Morgoth, ex-Gunjah, Agonized, Bonsai Kitten, Monzen, Sandy Leather, Sodomizer, ex-Destruction, ex-Graaf, ex-Sodomizer, ex-Pharao (live), ex-Mystic Circle, ex-Volcano, ex-Orth, ex-Lord Brummell
Max the Nekromancer Guitars
See also: Sodomizer
Leatherface Vocals, Bass, Guitars (2011-present)
See also: Hellkommander, Sodomizer, ex-Infektor, ex-Thy Rites


Technical info
(IMG:http://metalarea.org/images/spectrogram/2020_Jan/5b8296f7cbdd5c0750ee5196e6084ddc.png)
Input File: 04. Satanik Werevolves.mp3
Channels : 2
Sample Rate : 44100
Precision : 16-bit
Duration : 00:04:48.10 = 12705078 samples = 21607.3 CDDA sectors
File Size : 11.6M
Bit Rate : 322k
Sample Encoding: MPEG audio (layer I, II or III)
Comments :
Title=Satanik Werevolves
Artist=Satan Worship
Album=Teufelssprache
Tracknumber=4/9
Year=2019
Genre=Black/Death Metal
Discnumber=1/1



Register


Go to the top of the page
  Insert nick Quick quote
+Quote Post
 
Start new topic
Replies (1 - 4)
post Jan 31 2020, 02:24:39
Post #2

\m/
Group Icon
Group: S-moderation team
Posts: 7,790
Releases: 19
From: Петропавловск-Камчатский
On Forums: 10 years 11 months
Thanks: 7604 time(s)
Russian Federation


Однозначно шикарно (IMG:style_emoticons/default/metaler.gif) Угар и башкотряс!


Go to the top of the page
  Insert nick Quick quote
+Quote Post
post Jan 31 2020, 06:42:40
Post #3

Detective Godzilla
Group Icon
Group: Moderation team
Posts: 3,575
Releases: 297
On Forums: 9 years 3 months
Thanks: 11361 time(s)
Russian Federation


Судя по Facebook-странице проекта, альбом 2020
Go to the top of the page
  Insert nick Quick quote
+Quote Post
post Feb 1 2020, 17:01:37
Post #4

Правь статус, ####!111
**************
Group: Металариец
Posts: 3,023
Releases: 8
From: Dnipro
On Forums: 11 years 10 months
Thanks: 978 time(s)
Ukraine


Toxic Holocaust cloned (IMG:style_emoticons/default/18.gif)


Thanks:
Go to the top of the page
  Insert nick Quick quote
+Quote Post
post Feb 1 2020, 19:29:48
Post #5

Правь статус, ####!111
**************
Group: Металариец
Posts: 7,032
Releases: 165
From: URUGUAY
On Forums: 13 years 8 months
Thanks: 19359 time(s)
Uruguay


mp3@CBR320 kbps [Flac rip]
Register


Go to the top of the page
  Insert nick Quick quote
+Quote Post

Reply to this topicStart new topic
2 User(s) are reading this topic (2 Guests and 0 Anonymous Users)
0 Members:

 



- Lo-Fi Version Support form
Copyrights and abuse reports form
Time is now: 6th June 2020 - 17:31:06