Welcome Guest ( Log In | Register )

> Genfærd - Blodhævn (2020), Black Metal
post Jan 31 2020, 13:35:36
Post #1

Три Литра
***
Group: Завсегдатай
Posts: 224
Releases: 164
From: Bergen
On Forums: 9 years 3 months
Thanks: 4268 time(s)
Norway


(IMG:https://metalarea.org/images/audiocovers/2020_Jan/acov_tid333285_thumb.JPG)

*Artist: Genfærd
*Album: Blodhævn
*Year: 2020
*Genre: Black Metal
*Country: Denmark (IMG:https://metalarea.org/forum/style_images/flags/Denmark.png)
*Format: mp3@CBR320kbps
*Size: 139MB

Tracklist:
1. Galgenat
2. Splittelse
3. Trællegang
4. Hævnen
5. Varslet
6. Foragtens Flammer
7. Det Grå Rige
8. Det Sidste Svigt
9. Hedengang
******************************
Total playing time: 58:13



Technical info
(IMG:https://metalarea.org/images/spectrogram/2020_Jan/34e8bcf2e3de5925f7c6db365dbfaeb9.png)
Input File: 09-Hedengang.mp3
Channels : 2
Sample Rate : 44100
Precision : 16-bit
Duration : 00:09:01.11 = 23862819 samples = 40583 CDDA sectors
File Size : 21.6M
Bit Rate : 320k
Sample Encoding: MPEG audio (layer I, II or III)
Comments :
Title=Hedengang
Artist=Genfærd
Album=Blodhævn
Tracknumber=09/09
Year=2020
Genre=Black Metal



Register


Go to the top of the page
  Insert nick Quick quote
+Quote Post
 
Start new topic
Replies (1 - 8)
post Feb 1 2020, 04:41:44
Post #2

Маньяк
**********
Group: Металариец
Posts: 1,377
Releases: 3
From: Новороссия
On Forums: 14 years 7 months
Thanks: 766 time(s)
Russian Federation


Замечательный образчик приличного Black Metala с налётом мелодичности, плотной стеной звука и инфернальным сатанинским вокалом.
Go to the top of the page
  Insert nick Quick quote
+Quote Post
post Feb 1 2020, 05:02:43
Post #3

Три Литра
***
Group: Завсегдатай
Posts: 268
Releases: 4
From: урал
On Forums: 10 years 10 months
Thanks: 363 time(s)
Russian Federation


2015 тоже шикарен! Скачал с бс так как здесь его нет!


Thanks:
Go to the top of the page
  Insert nick Quick quote
+Quote Post
post Feb 1 2020, 10:54:16
Post #4

De Mysteriis Dom Sathanas
**************
Group: Металариец
Posts: 4,042
Releases: 63
From: Doom
On Forums: 12 years 2 months
Thanks: 3440 time(s)
Russian Federation


Посмотрев на фото с бк вспомнил советский фильм " Три толстяка" (IMG:style_emoticons/default/1488.gif)
По музыке ничего особенного - таких групп пруд пруди (IMG:style_emoticons/default/21.gif)
Go to the top of the page
  Insert nick Quick quote
+Quote Post
post Feb 2 2020, 01:57:27
Post #5

Правь статус, ####!111
**************
Group: Металариец
Posts: 4,605
Releases: 1336
From: Brazil
On Forums: 8 years 7 months
Thanks: 49806 time(s)
Brazil


Register

mp3@CBR320kbps


Thanks:
Go to the top of the page
  Insert nick Quick quote
+Quote Post
post Feb 11 2020, 16:51:13
Post #6

Два Литра
**
Group: Завсегдатай
Posts: 148
Releases: 2
From: г. Нальчик
On Forums: 7 years 9 months
Thanks: 453 time(s)
Russian Federation


Genfærd - Blodhævn (2020), FLAC (tracks), Lossless 442 MB
Register


Thanks:
Go to the top of the page
  Insert nick Quick quote
+Quote Post
post Feb 14 2020, 11:50:26
Post #7

Group: Подсевший
Posts: 12
Releases: 0
On Forums: 2 years 8 months
Thanks: 8 time(s)
Chile


ЦИТАТА(vovenom @ Feb 1 2020, 05:02:43) *
2015 тоже шикарен! Скачал с бс так как здесь его нет!

2015 лучше вышел!!!


Thanks:
(1) vovenom,
Go to the top of the page
  Insert nick Quick quote
+Quote Post
post Feb 14 2020, 12:22:33
Post #8

I hate you all
**************
Group: Металариец
Posts: 2,305
Releases: 76
From: Ukraine
On Forums: 13 years 4 months
Thanks: 5799 time(s)
Ukraine


ЦИТАТА(vovenom @ Feb 1 2020, 06:02:43) *
2015 тоже шикарен! Скачал с бс так как здесь его нет!

есть , я тут качал и зарелизен таки уже давно .


Thanks:
(1) vovenom,
Go to the top of the page
  Insert nick Quick quote
+Quote Post
post Feb 14 2020, 13:10:24
Post #9

Full-of-Hate
**************
Group: Металариец
Posts: 3,857
Releases: 0
From: Moscow
On Forums: 11 years 2 months
Thanks: 3707 time(s)
Russian Federation


Не хватило градуса злобы и атмосферы. Плоский проходной релиз. Материал уровня каверщиков, которые начали писать свой музон.


Thanks:
(1) Evilded,
Go to the top of the page
  Insert nick Quick quote
+Quote Post

Reply to this topicStart new topic
1 User(s) are reading this topic (1 Guests and 0 Anonymous Users)
0 Members:

 



- Lo-Fi Version Support form
Copyrights and abuse reports form
Time is now: 18th September 2020 - 07:34:28