Welcome Guest ( Log In | Register )

> Mavorim - Axis Mundi (2020), Black Metal
post Feb 1 2020, 12:22:50
Post #1

Маньяк
**********
Group: Металариец
Posts: 1,114
Releases: 940
From: Новороссийск
On Forums: 9 years 1 month
Thanks: 17836 time(s)
Russian Federation


(IMG:https://metalarea.org/images/audiocovers/2020_Feb/acov_tid333321_thumb.jpg)

*Artist: Mavorim
*Album: Axis Mundi
*Year: 2020
*Genre: Black Metal
*Country: Germany (IMG:https://metalarea.org/forum/style_images/flags/Germany.png)
*Format: mp3@VBR197kbps
*Size: 94MB

Tracklist:
01. Weltenberg 02:56
02. Aus Asche Auferstanden 05:40
03. Wo Kriegergleiche Kräfte Walten 04:37
04. Wie Ein Sturm 05:34
05. Die Letzte Festung 06:07
06. Die Ufer Von Thule 01:11
07. Der Himmel Bricht Entzwei 06:06
08. Verbannt in Dunkelheit 05:34
09. Königsjäger 05:02
10. Axis Mundi 06:16
11. Hyperborea 02:39
12. Wie Ein Sturm (feat. Revenant) 05:35
13. Kaiserjägerlied (Minenwerfer cover) 09:18
******************************
Total playing time: 1:06:35




Extended info


Technical info
(IMG:https://metalarea.org/images/spectrogram/2020_Feb/b94a11dcedf602516040fe5ca0798afd.png)
Input File: 02. Aus Asche Auferstanden.mp3
Channels : 2
Sample Rate : 44100
Precision : 16-bit
Duration : 00:05:40.69 = 15024341 samples = 25551.6 CDDA sectors
File Size : 8.40M
Bit Rate : 197k
Sample Encoding: MPEG audio (layer I, II or III)
Comments :
Title=Aus Asche Auferstanden
Artist=Mavorim
Album=Axis Mundi
Tracknumber=02
Year=2020
Genre=Black Metal



Register

Register

Register


Go to the top of the page
  Insert nick Quick quote
+Quote Post
 
Start new topic
Replies (1 - 12)
post Feb 2 2020, 02:57:43
Post #2

\m/
Group Icon
Group: S-moderation team
Posts: 7,790
Releases: 19
From: Петропавловск-Камчатский
On Forums: 10 years 11 months
Thanks: 7604 time(s)
Russian Federation


Added links by Samaritianin
Technical info
(IMG:http://metalarea.org/images/spectrogram/2020_Feb/fda375f2220792120d0ca946bba7be0a.png)
Input File: 04 Wie ein Sturm.mp3
Channels : 2
Sample Rate : 44100
Precision : 16-bit
Duration : 00:05:34.93 = 14770589 samples = 25120 CDDA sectors
File Size : 13.5M
Bit Rate : 323k
Sample Encoding: MPEG audio (layer I, II or III)
Comments :
Title=Wie ein Sturm
Artist=Mavorim
Album=Axis Mundi
Tracknumber=04
Year=2020
Genre=Black Metal

Go to the top of the page
  Insert nick Quick quote
+Quote Post
post Feb 2 2020, 03:03:35
Post #3

\m/
Group Icon
Group: S-moderation team
Posts: 7,790
Releases: 19
From: Петропавловск-Камчатский
On Forums: 10 years 11 months
Thanks: 7604 time(s)
Russian Federation


Added links by Verhasst
Technical info
(IMG:https://metalarea.org/images/spectrogram/2020_Feb/eebd059188144d353a5d6724f1da3099.png)
Input File: 10 Axis Mundi.mp3
Channels : 2
Sample Rate : 44100
Precision : 16-bit
Duration : 00:06:16.58 = 16606958 samples = 28243.1 CDDA sectors
File Size : 15.1M
Bit Rate : 320k
Sample Encoding: MPEG audio (layer I, II or III)
Comments :
Title=Axis Mundi
Artist=Mavorim
Album=Axis Mundi
Tracknumber=10
Year=2020
Genre=Black Metal



Thanks:
Go to the top of the page
  Insert nick Quick quote
+Quote Post
post Feb 2 2020, 05:15:30
Post #4

Литр
*
Group: Подсевший
Posts: 92
Releases: 43
On Forums: 1 year 1 month
Thanks: 835 time(s)
Unknown


Little Info here:
The Download of Samaritianin is without the Bonus Track "Kaiserjägerlied".


Go to the top of the page
  Insert nick Quick quote
+Quote Post
post Feb 2 2020, 18:02:15
Post #5

стакан. просто стакан.
**************
Group: Металариец
Posts: 3,766
Releases: 0
On Forums: 4 years 4 months
Thanks: 2454 time(s)
Unknown


клёвый альбом, бласты фигачат, мужики рычат поют, эффекты разные атмосферные, круто.
душа развернулась.
Go to the top of the page
  Insert nick Quick quote
+Quote Post
post Feb 2 2020, 20:29:02
Post #6

Detective Godzilla
Group Icon
Group: Moderation team
Posts: 3,575
Releases: 297
On Forums: 9 years 3 months
Thanks: 11361 time(s)
Russian Federation


Очень хорошо
Go to the top of the page
  Insert nick Quick quote
+Quote Post
post Feb 3 2020, 16:35:24
Post #7

Самый Тихий Час
**************
Group: Металариец
Posts: 5,951
Releases: 2
On Forums: 10 years 6 months
Thanks: 2754 time(s)
Unknown


Арт какой то уж очень мне нравицный. Да и дойчланд...Надо ознакомиться
Go to the top of the page
  Insert nick Quick quote
+Quote Post
post Feb 6 2020, 08:01:39
Post #8

Правь статус, ####!111
**************
Group: Металариец
Posts: 3,023
Releases: 8
From: Dnipro
On Forums: 11 years 10 months
Thanks: 978 time(s)
Ukraine


Ух, лоська бы такого цепануть (IMG:style_emoticons/default/18.gif)


Thanks:
Go to the top of the page
  Insert nick Quick quote
+Quote Post
post Feb 8 2020, 14:57:26
Post #9

кручу наждак
**************
Group: Металариец
Posts: 4,442
Releases: 102
From: Самара
On Forums: 10 years 3 weeks
Thanks: 3563 time(s)
Russian Federation


Качественно, но без изюминки.
Go to the top of the page
  Insert nick Quick quote
+Quote Post
post Feb 11 2020, 09:05:13
Post #10

мизантроп же
**********
Group: Металариец
Posts: 1,068
Releases: 8
From: Малаховка
On Forums: 13 years 3 months
Thanks: 1153 time(s)
Russian Federation


Нравится. Очень легко и не напряжно слушается, разнообразия хватает. Клавиши классные, нагоняют атмосферы. Вечерком расслабиться после рабочего дня - самое то.
Go to the top of the page
  Insert nick Quick quote
+Quote Post
post Feb 11 2020, 18:04:57
Post #11

Правь статус, ####!111
**************
Group: Металариец
Posts: 3,023
Releases: 8
From: Dnipro
On Forums: 11 years 10 months
Thanks: 978 time(s)
Ukraine


Подайте лося на пропитание (IMG:style_emoticons/default/smile4.gif)
Go to the top of the page
  Insert nick Quick quote
+Quote Post
post Feb 11 2020, 18:54:54
Post #12

Full-of-Hate
**************
Group: Металариец
Posts: 3,690
Releases: 0
From: Moscow
On Forums: 10 years 11 months
Thanks: 3466 time(s)
Russian Federation


Приятный слуху релиз с колоритной немецкой речью, такая прям "германщина". Звучит плотно, чистенько, со своей атмосферой, с атакующими гитарами, попытками спеть чисто. Это хоть и one-man-band - сделано все по уму и в меру разнообразно. Понравилось. Чем-то напомнило поздний Nargaroth, ассоциативно.

Mavorim, кстати, начинает потихоньку шпарить живьем с компании сессионщиков. Думаю, если на альбом будет попадать избранный материал, а не все подряд - толк от этого музыкального проекта будет. Sehr gut!
Go to the top of the page
  Insert nick Quick quote
+Quote Post
post Mar 2 2020, 16:02:12
Post #13

Правь статус, ####!111
**************
Group: Металариец
Posts: 3,023
Releases: 8
From: Dnipro
On Forums: 11 years 10 months
Thanks: 978 time(s)
Ukraine


ЛОСЯ быстро в студию (IMG:style_emoticons/default/19.gif)
Go to the top of the page
  Insert nick Quick quote
+Quote Post

Reply to this topicStart new topic
2 User(s) are reading this topic (2 Guests and 0 Anonymous Users)
0 Members:

 



- Lo-Fi Version Support form
Copyrights and abuse reports form
Time is now: 6th June 2020 - 19:27:56