Welcome Guest ( Log In | Register )

> И неформату есть предел.

Рэп/хип-хоп/шансон/поп удаляются. Для них есть свои порталы.

> Division Of Madness - Enter The Wonderland (2020), Heavy Metal/Hard Rock
post Feb 1 2020, 14:12:03
Post #1

Маньяк
**********
Group: Металариец
Posts: 1,030
Releases: 185
On Forums: 11 years 4 months
Thanks: 3710 time(s)
Russian Federation


(IMG:http://metalarea.org/images/audiocovers/2020_Feb/acov_tid333329_thumb.jpg)

*Artist: Division Of Madness
*Album: Enter The Wonderland
*Year: 2020
*Genre: Heavy Metal/Hard Rock
*Country: United States (IMG:http://metalarea.org/forum/style_images/flags/United%20States.png)
*Format: mp3@CBR320kbps
*Size: 135MB

Tracklist:
01. Wonderland
02. Overrated
03. Revolution
04. Talking to myShadow
05. Like the Wind
06. Brick House
07. Chainsaw Woman
08. In the Name of Love
09. Radioactive
10. Closer
11. She
12. The Waiting Game
13. Pretending
14. Where Angels Burn
******************************
Total playing time: 58:56

Preview 1
Preview 2

Extended info






Composer Lyricist: Markus Metzger
Songwriter: Markus Metzger
Composer Lyricist: Sotirios Eleftheriadis
Songwriter: Sotirios Eleftheriadis


Technical info
(IMG:http://metalarea.org/images/spectrogram/2020_Feb/442fb382e932f1a16ba1b195cba5fa36.png)
Input File: 01-Wonderland.mp3
Channels : 2
Sample Rate : 44100
Precision : 16-bit
Duration : 00:05:32.64 = 14669336 samples = 24947.9 CDDA sectors
File Size : 13.3M
Bit Rate : 320k
Sample Encoding: MPEG audio (layer I, II or III)
Comments :
Title=Wonderland
Artist=Division Of Madness
Album=Enter The Wonderland
Tracknumber=1
Year=2020
Genre=Heavy Metal



Register


Go to the top of the page
  Insert nick Quick quote
+Quote Post
 
Start new topic
Replies (1 - 2)
post Feb 2 2020, 07:47:19
Post #2

Маньяк
**********
Group: Металариец
Posts: 1,030
Releases: 185
On Forums: 11 years 4 months
Thanks: 3710 time(s)
Russian Federation


FLAC tracks
Register


Thanks:
Go to the top of the page
  Insert nick Quick quote
+Quote Post
post Feb 2 2020, 08:23:14
Post #3

Три Литра
***
Group: Завсегдатай
Posts: 273
Releases: 0
From: Россия
On Forums: 8 years 2 months
Thanks: 89 time(s)
Russian Federation


Ну да,базара нет,раз в превью стоит гугол плей и яндекс музыка,значит инфа железная - Страна: United States (IMG:style_emoticons/default/1488.gif) Тебе казахи написали бы,ты бы также и указал тупо скопировал
Go to the top of the page
  Insert nick Quick quote
+Quote Post

Reply to this topicStart new topic
1 User(s) are reading this topic (1 Guests and 0 Anonymous Users)
0 Members:

 



- Lo-Fi Version Support form
Copyrights and abuse reports form
Time is now: 10th April 2020 - 08:59:14