Welcome Guest ( Log In | Register )

> И неформату есть предел.

Рэп/хип-хоп/шансон/поп удаляются. Для них есть свои порталы.

> Lurker Of Chalice - Tellurian Slaked Furnace [compilation] (2020), Dark Ambient/Deathrock/Post-Punk (D)
post Feb 1 2020, 19:32:08
Post #1


Group Icon
Group: Curation team
Posts: 1,927
Releases: 143
On Forums: 13 years 6 months
Thanks: 15037 time(s)
Russian Federation


(IMG:http://metalarea.org/images/audiocovers/2020_Feb/acov_tid333345_thumb.jpg)

*Artist: Lurker Of Chalice
*Album: Tellurian Slaked Furnace [compilation]
*Year: 2020
*Genre: Dark Ambient/Deathrock/Post-Punk
*Country: United States (IMG:http://metalarea.org/forum/style_images/flags/United%20States.png)
*Format: mp3@CBR320kbps
*Size: 153MB

Tracklist:
1. I 04:08
2. II 06:25
3. III 06:00
4. IV 06:21
5. V 02:44
6. VI 04:10
7. VII 04:12
8. VIII 08:00
9. IX 05:34
10. X 05:32
11. XI 09:39
12. XII 06:10
******************************
Total playing time: 1:08:55



Extended info
Nuclear War Now! Productions, January 21st.


Technical info
(IMG:http://metalarea.org/images/spectrogram/2020_Feb/5fdc53029a9f0d64218b19f97c28cb1e.png)
Input File: 02 II.mp3
Channels : 2
Sample Rate : 44100
Precision : 16-bit
Duration : 00:06:25.10 = 16982690 samples = 28882.1 CDDA sectors
File Size : 15.5M
Bit Rate : 322k
Sample Encoding: MPEG audio (layer I, II or III)
Comments :
Title=02 II
Artist=Lurker of Chalice
Album=Tellurian Slaked Furnace
Tracknumber=2
Year=2020



Register


Register


Go to the top of the page
  Insert nick Quick quote
+Quote Post
 
Start new topic
Replies (1 - 7)
post Feb 2 2020, 12:07:39
Post #2

Detective Godzilla
Group Icon
Group: Moderation team
Posts: 3,405
Releases: 295
On Forums: 9 years 1 month
Thanks: 10944 time(s)
Russian Federation


Один из немногих релизов NWN, который повезло купить. Закупал вкупе с недавними чешскими демками, которые тоже в цифре оказались доступны. Жаль, что разовые акции, так сказать.
Go to the top of the page
  Insert nick Quick quote
+Quote Post
post Feb 2 2020, 13:00:13
Post #3

Crush! Kill! Destroy!
**************
Group: Металариец
Posts: 5,306
Releases: 15
From: Kaliningrad
On Forums: 12 years 4 months
Thanks: 4913 time(s)
Russian Federation


Всякие эмбиентные тренькалки не люблю, но белобашкОвый - талант. Атмосферненько и симпатичненько. Местами прям Линчевско-Бадаламентиевски.
Go to the top of the page
  Insert nick Quick quote
+Quote Post
post Feb 2 2020, 13:15:45
Post #4

Восемь Литров
********
Group: Металариец
Posts: 825
Releases: 0
From: Черкассы
On Forums: 8 years 3 months
Thanks: 118 time(s)
Ukraine


Один из немногих релизов NWN, которому повезло
Go to the top of the page
  Insert nick Quick quote
+Quote Post
post Feb 2 2020, 13:20:59
Post #5

Шесть Литров
******
Group: Металариец
Posts: 661
Releases: 0
On Forums: 6 years 7 months
Thanks: 487 time(s)
Australia


QUOTE(krotovich @ Feb 2 2020, 13:15:45) *
Один из немногих релизов NWN, который повезло

One of the very best labels.


Go to the top of the page
  Insert nick Quick quote
+Quote Post
post Feb 2 2020, 16:57:25
Post #6

Detective Godzilla
Group Icon
Group: Moderation team
Posts: 3,405
Releases: 295
On Forums: 9 years 1 month
Thanks: 10944 time(s)
Russian Federation


ЦИТАТА(biroutios @ 2nd February 2020 - 17:20:59) *
One of the very best labels.


You're right. I talk about this release in the direction of digital buy. NWN concentrated on physical releases and I can't buy 90% of their bandcamp stuff
Go to the top of the page
  Insert nick Quick quote
+Quote Post
post Feb 13 2020, 11:28:01
Post #7

Group: Подсевший
Posts: 48
Releases: 0
On Forums: 2 months 2 weeks
Thanks: 13 time(s)
Unknown


Джеф Уайтхед в очередной раз показал насколько музыкант может быть талантлив и многогранен в своих произведениях. Компилиция однозначно (IMG:style_emoticons/default/pray.gif)
Go to the top of the page
  Insert nick Quick quote
+Quote Post
post Feb 16 2020, 10:50:50
Post #8

алкодзэн, шапка из фольги и пропитая троица
**************
Group: Металариец
Posts: 3,527
Releases: 0
On Forums: 4 years 1 month
Thanks: 2208 time(s)
Unknown


тем кому особенно прикипел его полноформат эта компиляшка может показаться немного кустарной по звучанию и йа из числа этих людей.
типа аналогии и сравнение. но постараемся оставить это всё в стороне и плотно размажемся сознанием по этому мегалиту экспериментализма (IMG:style_emoticons/default/headcrab.png) (IMG:style_emoticons/default/25.gif)
и всё таки послушаю ещё раз полноформат.
Go to the top of the page
  Insert nick Quick quote
+Quote Post

Reply to this topicStart new topic
1 User(s) are reading this topic (1 Guests and 0 Anonymous Users)
0 Members:

 



- Lo-Fi Version Support form
Copyrights and abuse reports form
Time is now: 30th March 2020 - 14:55:44