Welcome Guest ( Log In | Register )

> Percussor - Remnants Of Horror Redux (2019), Old School Death Metal
post Feb 2 2020, 12:37:14
Post #1

Правь статус, ####!111
**************
Group: Металариец
Posts: 26,289
Releases: 18919
From: Г.Харьков
On Forums: 9 years 1 month
Thanks: 376985 time(s)
Unknown


(IMG:http://metalarea.org/images/audiocovers/2020_Feb/acov_tid333367_thumb.jpg)

*Artist: Percussor
*Album: Remnants Of Horror Redux
*Year: 2019
*Genre: Old School Death Metal
*Country: United States (IMG:http://metalarea.org/forum/style_images/flags/United%20States.png)
*Format: mp3@CBR320kbps
*Size: 85MB

Tracklist:
1. Intro/Derided by Defeat 05:09
2. Relinquished Vitality 06:01
3. Rejoicing Your Death 02:28
4. Thriving on Misery 05:02
5. Remnants of Horror 02:18
6. Whores of Deceit 02:11
7. Execrate 01:29
8. Vile Agression 05:21
9. Fuck Your Opinion 05:02
10. Diseased Breeder 02:20
******************************
Total playing time: 37:21




Extended info
Jack Carmichael Vocals, Guitars (1996-1998, 2014-present)
See also: ex-Afterbirth, ex-Lesch-Nyhan
Walter Capelli Drums (2018-present)
See also: ex-Inhumanity
Paul Orkin Bass (2019-present)


Technical info
(IMG:http://metalarea.org/images/spectrogram/2020_Feb/f02d201efd77d39216483a3e42ebfa1d.png)
Input File: 04 - Thriving on Misery.mp3
Channels : 2
Sample Rate : 44100
Precision : 16-bit
Duration : 00:05:02.07 = 13321419 samples = 22655.5 CDDA sectors
File Size : 12.1M
Bit Rate : 321k
Sample Encoding: MPEG audio (layer I, II or III)
Comments :
Title=Thriving on Misery
Artist=Percussor
Album=Remnants of Horror Redux
Tracknumber=4
Year=2019-11-16
Discnumber=1



Register


Go to the top of the page
  Insert nick Quick quote
+Quote Post
 
Start new topic
Replies (1 - 4)
post Feb 3 2020, 09:52:31
Post #2

Маньяк
**********
Group: Металариец
Posts: 1,027
Releases: 1
From: APATIN, SERBIA, АПАТИН, СЕРБИЯ
On Forums: 13 years 7 months
Thanks: 2242 time(s)



Flac

Register


Go to the top of the page
  Insert nick Quick quote
+Quote Post
post Feb 4 2020, 19:11:13
Post #3

Правь статус, ####!111
**************
Group: Металариец
Posts: 26,289
Releases: 18919
From: Г.Харьков
On Forums: 9 years 1 month
Thanks: 376985 time(s)
Unknown


ЦИТАТА(Occultas @ 4th February 2020 - 19:46:19) *
Remnants Of Horror 2017 anyone?

this is the one. Reissue with bonus track (IMG:style_emoticons/default/smile3.gif)
Go to the top of the page
  Insert nick Quick quote
+Quote Post
post Feb 4 2020, 20:09:59
Post #4

Правь статус, ####!111
**************
Group: Металариец
Posts: 26,289
Releases: 18919
From: Г.Харьков
On Forums: 9 years 1 month
Thanks: 376985 time(s)
Unknown


ЦИТАТА(Occultas @ 4th February 2020 - 20:25:52) *
Remnants Of Horror 2017 anyone

трек лист идентичный,на 2019 + бонус трек 10. Diseased Breeder 02:20
Go to the top of the page
  Insert nick Quick quote
+Quote Post
post Jun 10 2021, 08:42:20
Post #5

antithesis
**************
Group: Металариец
Posts: 3,361
Releases: 35
From: VRN
On Forums: 11 years 3 weeks
Thanks: 2158 time(s)
Russian Federation


имеются смачные эпизоды, но в целом олдскульная кустарщина.


Thanks:
(1) Occultas,
Go to the top of the page
  Insert nick Quick quote
+Quote Post

Reply to this topicStart new topic
1 User(s) are reading this topic (1 Guests and 0 Anonymous Users)
0 Members:

 



- Lo-Fi Version Support form
Copyrights and abuse reports form
Time is now: 14th June 2021 - 22:20:01