Welcome Guest ( Log In | Register )

> Irae - Satanic Secrets From The Mausoleum [compilation] (2019), Black Metal
post Feb 3 2020, 02:35:34
Post #1

Правь статус, ####!111
**************
Group: Металариец
Posts: 4,800
Releases: 1472
From: Brazil
On Forums: 9 years 4 months
Thanks: 54994 time(s)
Brazil


(IMG:https://metalarea.org/images/audiocovers/2020_Feb/acov_tid333387_thumb.jpg)

*Artist: Irae
*Album: Satanic Secrets From The Mausoleum [compilation]
*Year: 2019
*Genre: Black Metal
*Country: Portugal (IMG:https://metalarea.org/forum/style_images/flags/Portugal.png)
*Format: mp3@CBR320kbps
*Size: 95MB

Tracklist:
1. O Epilogo da Antiguidade 05:41
2. O Pacto 04:16
3. No Trono do Sacrobode 03:31
4. Dark Arts of Tradition 06:18
5. Claws of Desecration 03:23
6. To Reign in Chaos 04:37
7. Night of Holocaust 04:33
8. Evil Seed 03:20
9. Warfront 02:28
10. Horns of Doom 02:58
******************************
Total playing time: 41:05



Extended info
Humanity's Plague Productions

A collection of unreleased songs spanning their existence that have not been released until now.
comes with a glossy double insert, housed in a matte finish jacket


Technical info
(IMG:https://metalarea.org/images/spectrogram/2020_Feb/3d12ec699a5f25b4ae1838cd4b922382.png)
Input File: A2. O Pacto.mp3
Channels : 2
Sample Rate : 44100
Precision : 16-bit
Duration : 00:04:11.08 = 11072452 samples = 18830.7 CDDA sectors
File Size : 10.0M
Bit Rate : 320k
Sample Encoding: MPEG audio (layer I, II or III)
Comments :
Title=O Pacto
Artist=Irae
Album=Satanic Secrets from the Mausoleum
Tracknumber=2
Year=2019



Register


Go to the top of the page
  Insert nick Quick quote
+Quote Post
 
Start new topic
Replies (1 - 1)
post May 3 2021, 15:21:00
Post #2

antithesis
**************
Group: Металариец
Posts: 3,360
Releases: 35
From: VRN
On Forums: 11 years 3 weeks
Thanks: 2156 time(s)
Russian Federation


сторона A прекрасна в своей необузданности и пронзительности, сторона Б - сумбурное и ядовитое нечто, испорченное драм-м(еш)аш(н)иной (IMG:style_emoticons/default/22.gif)
Go to the top of the page
  Insert nick Quick quote
+Quote Post

Reply to this topicStart new topic
1 User(s) are reading this topic (1 Guests and 0 Anonymous Users)
0 Members:

 



- Lo-Fi Version Support form
Copyrights and abuse reports form
Time is now: 12th June 2021 - 22:39:36