Welcome Guest ( Log In | Register )

> И неформату есть предел.

Рэп/хип-хоп/шансон/поп удаляются. Для них есть свои порталы.

 
Reply to this topicStart new topic
> Neil Mcdougall - The Circle Squared (2020), Instrumental Progressive Rock
post Feb 3 2020, 15:25:33
Post #1

Маньяк
**********
Group: Металариец
Posts: 1,226
Releases: 221
On Forums: 11 years 6 months
Thanks: 4389 time(s)
Russian Federation


(IMG:http://metalarea.org/images/audiocovers/2020_Feb/acov_tid333418_thumb.jpg)

*Artist: Neil Mcdougall
*Album: The Circle Squared
*Year: 2020
*Genre: Instrumental Progressive Rock
*Country: United States (IMG:http://metalarea.org/forum/style_images/flags/United%20States.png)
*Format: mp3@CBR320kbps
*Size: 88MB

Tracklist:
01. Three Thirteen
02. Ablaze
03. Olympiad
04. Better
05. Caged
06. Crashing
07. Gatekeeper
08. Ascension
09. Dogfighter
10. Rebound
11. Seventh Heaven
******************************
Total playing time: 38:26





Technical info
(IMG:http://metalarea.org/images/spectrogram/2020_Feb/69ca97b35258ddcdab75d3af46e98446.png)
Input File: 02-Ablaze.mp3
Channels : 2
Sample Rate : 44100
Precision : 16-bit
Duration : 00:03:46.16 = 9973524 samples = 16961.8 CDDA sectors
File Size : 9.05M
Bit Rate : 320k
Sample Encoding: MPEG audio (layer I, II or III)
Comments :
Title=Ablaze
Artist=Neil McDougall
Album=The Circle Squared
Tracknumber=2/11
Year=2020
Genre=Progressive Metal / Instrumental



Register


Thanks:
Go to the top of the page
  Insert nick Quick quote
+Quote Post

Reply to this topicStart new topic
1 User(s) are reading this topic (1 Guests and 0 Anonymous Users)
0 Members:

 



- Lo-Fi Version Support form
Copyrights and abuse reports form
Time is now: 5th June 2020 - 07:12:12