Welcome Guest ( Log In | Register )

> И неформату есть предел.

Рэп/хип-хоп/шансон/поп удаляются. Для них есть свои порталы.

> Cymande - Cymande (1972), Fusion Rock
post Feb 4 2020, 10:14:14
Post #1

Group Icon
Group: S-moderation team
Posts: 15,579
Releases: 1440
From: Zagreb
On Forums: 9 years 3 months
Thanks: 69454 time(s)
Croatia


(IMG:http://metalarea.org/images/audiocovers/2020_Feb/acov_tid333436_thumb.jpg)

*Artist: Cymande
*Album: Cymande
*Year: 1972
*Genre: Fusion Rock
*Country: United Kingdom (IMG:http://metalarea.org/forum/style_images/flags/United%20Kingdom.png)
*Format: mp3@CBR320kbps
*Size: 120MB

Tracklist:
01 Zion I 03:30
02 One More 03:05
03 Getting It Back 04:18
04 Listen 04:40
05 Rickshaw 05:54
06 Dove 10:54
07 Bra 05:06
08 The Message 04:20
09 Ras Tafarian Folk Song 03:15
10 The Message (7'' Mix) 03:28
11 Bra (7'' Mix) 03:28
******************************
Total playing time: 51:58

Preview 1

Extended info


Technical info
(IMG:http://metalarea.org/images/spectrogram/2020_Feb/9bbf9cf538d6cfb84cdb3f86bfb59865.png)
Input File: 02 - One More.mp3
Channels : 2
Sample Rate : 44100
Precision : 16-bit
Duration : 00:03:05.87 = 8196911 samples = 13940.3 CDDA sectors
File Size : 7.43M
Bit Rate : 320k
Sample Encoding: MPEG audio (layer I, II or III)



Register


This post has been edited by Borderline1991: Feb 4 2020, 10:58:58


Go to the top of the page
  Insert nick Quick quote
+Quote Post
 
Start new topic
Replies (1 - 1)
post Feb 4 2020, 12:03:58
Post #2

Правь статус, ####!111
**************
Group: Металариец
Posts: 46,493
Releases: 718
On Forums: 11 years 4 days
Thanks: 39036 time(s)
Russian Federation


Another rare stuff?

Will definitely give it a try.

The 70's era so rarely disappoints.

Soon I'll upload something psyched out from this time.


Go to the top of the page
  Insert nick Quick quote
+Quote Post

Reply to this topicStart new topic
1 User(s) are reading this topic (1 Guests and 0 Anonymous Users)
0 Members:

 



- Lo-Fi Version Support form
Copyrights and abuse reports form
Time is now: 6th June 2020 - 10:38:34