Welcome Guest ( Log In | Register )

> И неформату есть предел.

Рэп/хип-хоп/шансон/поп удаляются. Для них есть свои порталы.

 
Reply to this topicStart new topic
> James Brown - There It Is (1972), Funk/Soul
post Feb 4 2020, 21:01:55
Post #1

Правь статус, ####!111
**************
Group: Металариец
Posts: 45,781
Releases: 705
On Forums: 10 years 10 months
Thanks: 37824 time(s)
Russian Federation


(IMG:http://metalarea.org/images/audiocovers/2020_Feb/acov_tid333461_thumb.jpg)

*Artist: James Brown
*Album: There It Is
*Year: 1972
*Genre: Funk/Soul
*Country: United States (IMG:http://metalarea.org/forum/style_images/flags/United%20States.png)
*Format: mp3@CBR320kbps
*Size: 118MB

Tracklist:
1. There It Is, Pts. 1 & 2 05:50
2. King Heroin 03:58
3. I'm a Greedy Man 07:06
4. Who Am I 04:59
5. Talking Loud and Saying Nothing 07:49
6. Public Enemy No. 1, Pt. 1 05:06
7. Public Enemy No. 1, Pt. 2 05:09
8. I Need Help (I Can't Do It Alone) 03:31
9. Never Can Say Goodbye 03:02
******************************
Total playing time: 46:30

(IMG:http://metalarea.org/images/youtube.png)

Technical info
(IMG:http://metalarea.org/images/spectrogram/2020_Feb/600d99b23427fae4de6d65f43a3f705b.png)
Input File: 01 - There It Is (Parts 1&2).mp3
Channels : 2
Sample Rate : 44100
Precision : 16-bit
Duration : 00:05:50.79 = 15469663 samples = 26309 CDDA sectors
File Size : 14.0M
Bit Rate : 320k
Sample Encoding: MPEG audio (layer I, II or III)
Comments :
Title=There It Is (Parts 1&2)
Artist=James Brown
Album=There It Is
Tracknumber=01/09
Year=1972
Genre=Funk



Register


Thanks:
Go to the top of the page
  Insert nick Quick quote
+Quote Post
post Feb 5 2020, 08:12:03
Post #2

Правь статус, ####!111
**************
Group: Металариец
Posts: 45,781
Releases: 705
On Forums: 10 years 10 months
Thanks: 37824 time(s)
Russian Federation


Eargasmic (IMG:style_emoticons/default/20.gif)
Go to the top of the page
  Insert nick Quick quote
+Quote Post

Reply to this topicStart new topic
1 User(s) are reading this topic (1 Guests and 0 Anonymous Users)
0 Members:

 



- Lo-Fi Version Support form
Copyrights and abuse reports form
Time is now: 8th April 2020 - 06:53:40