Welcome Guest ( Log In | Register )

> Desolator - Last Wish (2012), Death Metal
post Feb 6 2020, 13:29:37
Post #1

Join my religion, or die
**************
Group: Металариец
Posts: 10,950
Releases: 1651
From: Питера
On Forums: 11 years 8 months
Thanks: 21818 time(s)
Russian Federation


(IMG:https://metalarea.org/images/audiocovers/2020_Feb/acov_tid333538_thumb.jpg)

*Artist: Desolator
*Album: Last Wish
*Year: 2012
*Genre: Death Metal
*Country: Poland (IMG:https://metalarea.org/forum/style_images/flags/Poland.png)
*Format: mp3@CBR320kbps
*Size: 78MB

Tracklist:
01. Intro (Eternal Damnation) 02:03
02. Last Wish (3) 04:40
03. Capital Punishment (7) 03:10
04. Merciless Dementia (2) 03:20
05. Born of Sin (9) 03:48
06. Soul to Machine (4) 05:39
07. Again (6) 03:23
08. Behind the Mask (8) 03:30
09. Turned Around (Sickness) [5] 04:15
******************************
Total playing time: 33:48

Technical info
(IMG:https://metalarea.org/images/spectrogram/2020_Feb/881676c32b804fb668e2120aa09053a9.png)
Input File: 02 Last Wish (3).mp3
Channels : 2
Sample Rate : 44100
Precision : 16-bit
Duration : 00:04:41.10 = 12396334 samples = 21082.2 CDDA sectors
File Size : 11.4M
Bit Rate : 324k
Sample Encoding: MPEG audio (layer I, II or III)
Comments :
Title=Last Wish
Artist=Desolator
Album=2012 Last Wish
Tracknumber=02/09
Year=2012
Genre=Death Metal



Register


Go to the top of the page
  Insert nick Quick quote
+Quote Post
 
Start new topic
Replies (1 - 2)
post Feb 7 2020, 08:56:14
Post #2

hearer & reader
**************
Group: Металариец
Posts: 9,746
Releases: 172
From: Moscow
On Forums: 13 years 9 months
Thanks: 10890 time(s)
Russian Federation


Лениво превью найти, да?


https://music.yandex.ru/album/1477138
Добротная дезня.


Go to the top of the page
  Insert nick Quick quote
+Quote Post
post May 4 2021, 17:49:37
Post #3

Forever Underground
**************
Group: Металариец
Posts: 8,442
Releases: 0
On Forums: 6 years 2 months
Thanks: 11554 time(s)
Unknown


Go to the top of the page
  Insert nick Quick quote
+Quote Post

Reply to this topicStart new topic
1 User(s) are reading this topic (1 Guests and 0 Anonymous Users)
0 Members:

 



- Lo-Fi Version Support form
Copyrights and abuse reports form
Time is now: 12th June 2021 - 22:22:55