Welcome Guest ( Log In | Register )

> И неформату есть предел.

Рэп/хип-хоп/шансон/поп удаляются. Для них есть свои порталы.

 
Reply to this topicStart new topic
> Исихия - Исихия (2001), Bulgarian Folk/Ambient
post Feb 7 2020, 13:23:56
Post #1

ΕΥΜΕΝΙΔΕΣ
**************
Group: Металариец
Posts: 2,274
Releases: 27
From: Kænugarður
On Forums: 13 years 1 month
Thanks: 3128 time(s)
Ukraine


(IMG:https://metalarea.org/images/audiocovers/2020_Feb/acov_tid333563_thumb.JPG)

*Artist: Исихия
*Album: Исихия
*Year: 2001
*Genre: Bulgarian Folk/Ambient
*Country: Bulgaria (IMG:https://metalarea.org/forum/style_images/flags/Bulgaria.png)
*Format: mp3@CBR320kbps
*Size: 135MB

Tracklist:
01. Преображение
02. Господи Возвах
03. Царя Фружина
04. Черномен
05. 1393
06. Ветре
07. Саруяр
******************************
Total playing time: 59:27

(IMG:https://metalarea.org/images/youtube.png)

Technical info
(IMG:https://metalarea.org/images/spectrogram/2020_Feb/5fca5ca5b72c332fe09f2099d071881f.png)
Input File: 02 - Господи Возвах.mp3
Channels : 2
Sample Rate : 44100
Precision : 16-bit
Duration : 00:09:15.74 = 24508002 samples = 41680.3 CDDA sectors
File Size : 22.2M
Bit Rate : 320k
Sample Encoding: MPEG audio (layer I, II or III)
Comments :
Title=Господи Возвах
Artist=Исихия
Album=Исихия
Tracknumber=02
Year=2001
Genre=Bulgarian Folk/Ambient



Register


Go to the top of the page
  Insert nick Quick quote
+Quote Post

Reply to this topicStart new topic
1 User(s) are reading this topic (1 Guests and 0 Anonymous Users)
0 Members:

 



- Lo-Fi Version Support form
Copyrights and abuse reports form
Time is now: 1st April 2020 - 16:18:36