Welcome Guest ( Log In | Register )

> И неформату есть предел.

Рэп/хип-хоп/шансон/поп удаляются. Для них есть свои порталы.

> Исихия - Орисия (2003), Bulgarian Folk/Ambient
post Feb 7 2020, 13:28:05
Post #1

ΕΥΜΕΝΙΔΕΣ
**************
Group: Металариец
Posts: 2,283
Releases: 27
From: Kænugarður
On Forums: 13 years 1 month
Thanks: 3144 time(s)
Ukraine


(IMG:https://metalarea.org/images/audiocovers/2020_Feb/acov_tid333564_thumb.jpg)

*Artist: Исихия
*Album: Орисия
*Year: 2003
*Genre: Bulgarian Folk/Ambient
*Country: Bulgaria (IMG:https://metalarea.org/forum/style_images/flags/Bulgaria.png)
*Format: mp3@CBR320kbps
*Size: 153MB

Tracklist:
01. Ключ
02. Родопа
03. Угар
04. Кости
05. Турски Танц
06. Проклятието
07. Чакрък
08. Въведение
09. Арамии
10. Господи Возвах
11. Ветре
******************************
Total playing time: 1:11:04

(IMG:https://metalarea.org/images/youtube.png)

Technical info
(IMG:https://metalarea.org/images/spectrogram/2020_Feb/24ee3cf66b0784be74f29145f2f80c68.png)
Input File: 02 - Родопа.mp3
Channels : 2
Sample Rate : 44100
Precision : 16-bit
Duration : 00:10:33.72 = 27946876 samples = 47528.7 CDDA sectors
File Size : 25.3M
Bit Rate : 320k
Sample Encoding: MPEG audio (layer I, II or III)
Comments :
Title=Родопа
Artist=Исихия
Album=Орисия
Tracknumber=02
Year=2003
Genre=Bulgarian Folk/Ambient



Register


Go to the top of the page
  Insert nick Quick quote
+Quote Post
 
Start new topic
Replies (1 - 2)
post Mar 13 2020, 19:19:16
Post #2

Семь Литров
*******
Group: Металариец
Posts: 718
Releases: 0
On Forums: 5 years 3 months
Thanks: 134 time(s)
Poland


Please re-up
Go to the top of the page
  Insert nick Quick quote
+Quote Post
post Mar 13 2020, 23:14:29
Post #3

Правь статус, ####!111
**************
Group: Металариец
Posts: 3,191
Releases: 36
On Forums: 2 years 5 months
Thanks: 7344 time(s)
Unknown


Register


Go to the top of the page
  Insert nick Quick quote
+Quote Post

Reply to this topicStart new topic
1 User(s) are reading this topic (1 Guests and 0 Anonymous Users)
0 Members:

 



- Lo-Fi Version Support form
Copyrights and abuse reports form
Time is now: 7th April 2020 - 04:52:49