Welcome Guest ( Log In | Register )

> И неформату есть предел.

Рэп/хип-хоп/шансон/поп удаляются. Для них есть свои порталы.

> Fjara - Inkerinmaa [ep] (2020), Dark Folk
post Feb 9 2020, 07:37:13
Post #1

Group: Подсевший
Posts: 37
Releases: 25
On Forums: 4 months 3 weeks
Thanks: 462 time(s)
Unknown


(IMG:https://metalarea.org/images/audiocovers/2020_Feb/acov_tid333625_thumb.jpg)

*Artist: Fjara
*Album: Inkerinmaa [ep]
*Year: 2020
*Genre: Dark Folk
*Country: Russian Federation (IMG:https://metalarea.org/forum/style_images/flags/Russian%20Federation.png)
*Format: mp3@CBR320kbps
*Size: 49MB

Tracklist:
01. Kullervo 03:48
02. Interlude I 00:50
03. Inkerinmaa 03:48
04. Interlude II 00:42
05. Karjalan Vartia 03:10
06. Interlude III 00:44
07. Sulava Jää 03:50
08. Interlude IV 00:36
09. Konevitsan Kirkonkellot 04:08
******************************
Total playing time: 21:36




Extended info
Instrumental acoustic music by Nikita Kislov, dedicated to the nature of Karelia.


Technical info
(IMG:https://metalarea.org/images/spectrogram/2020_Feb/1c37402f3a7b2a7929167224b4152158.png)
Input File: 03. Inkerinmaa.mp3
Channels : 2
Sample Rate : 48000
Precision : 16-bit
Duration : 00:03:48.00 = 10944144 samples ~ 17100.2 CDDA sectors
File Size : 9.16M
Bit Rate : 321k
Sample Encoding: MPEG audio (layer I, II or III)
Comments :
Title=Inkerinmaa
Artist=Fjara
Album=Inkerinmaa
Tracknumber=03
Year=2020



Register


Go to the top of the page
  Insert nick Quick quote
+Quote Post
 
Start new topic
Replies (1 - 4)
post Feb 10 2020, 23:54:26
Post #2

Group: Подсевший
Posts: 37
Releases: 14
On Forums: 10 years 8 months
Thanks: 257 time(s)
Ukraine


Отличный иструментальный альбом!
Go to the top of the page
  Insert nick Quick quote
+Quote Post
post Feb 11 2020, 18:10:36
Post #3

Семь Литров
*******
Group: Металариец
Posts: 709
Releases: 2
On Forums: 9 years 6 months
Thanks: 292 time(s)
Belarus


оооо жырок))люблю такое
Go to the top of the page
  Insert nick Quick quote
+Quote Post
post Mar 27 2020, 22:53:03
Post #4

Ледоруб
**************
Group: Металариец
Posts: 24,497
Releases: 0
From: Санкт-Петербург
On Forums: 10 years 6 months
Thanks: 8397 time(s)
Russian Federation


Пальцем в небо.
Go to the top of the page
  Insert nick Quick quote
+Quote Post
post Mar 27 2020, 23:26:39
Post #5

Ледоруб
**************
Group: Металариец
Posts: 24,497
Releases: 0
From: Санкт-Петербург
On Forums: 10 years 6 months
Thanks: 8397 time(s)
Russian Federation


ЦИТАТА(sundowning @ 9th February 2020 - 09:37:13) *
09. Konevitsan Kirkonkellot 04:08

Вот это ожидаемо неплохо.
Go to the top of the page
  Insert nick Quick quote
+Quote Post

Reply to this topicStart new topic
1 User(s) are reading this topic (1 Guests and 0 Anonymous Users)
0 Members:

 



- Lo-Fi Version Support form
Copyrights and abuse reports form
Time is now: 4th April 2020 - 14:48:39