Welcome Guest ( Log In | Register )

> Releases Upload / Добавление релизов

Добавить релиз тут / Click here to add release
Рекомендованные обменники / Recommended file shares

> Shaam Larein - Sculpture (2020), Doom Metal/Goth Rock
post Feb 9 2020, 11:22:02
Post #1

Group: Подсевший
Posts: 37
Releases: 25
On Forums: 5 months 2 days
Thanks: 463 time(s)
Unknown


(IMG:http://metalarea.org/images/audiocovers/2020_Feb/acov_tid333627_thumb.jpg)

*Artist: Shaam Larein
*Album: Sculpture
*Year: 2020
*Genre: Doom Metal/Goth Rock
*Country: Sweden (IMG:http://metalarea.org/forum/style_images/flags/Sweden.png)
*Format: mp3@CBR320kbps
*Size: 77MB

Tracklist:
01. Aurora 04:56
02. Volcano 07:06
03. Lifes Coma 05:28
04. Memories 05:23
05. Zaman 01:56
06. Lunar Crater 06:27
07. Traveler 05:35
******************************
Total playing time: 36:51




Extended info
The music on "Sculpture" is written with three strong female voices in focus and this choir is-allowed-to command as much space as the lead vocal. It is dark and barren but with a beauty that shines like a beacon through the desperation.

Shaam says: "My inspiration comes from a wide range of artist, the somber and gloomy as well as the lucent and dazzling. Sculpture have become a pit of many expressions, where I have created freely. Since I come from the Middle East myself, it becomes quite obvious in my creation that that touch comes in and mixes with the heavy rock we play. It may not be so obvious to all listeners, but it usually falls into place for those who knows the Middle Eastern sound. The scales are pretty clear in the songs."


Technical info
(IMG:http://metalarea.org/images/spectrogram/2020_Feb/d4a7abdc4874e80bc1230513b3b45879.png)
Input File: 01. Aurora.mp3
Channels : 2
Sample Rate : 44100
Precision : 16-bit
Duration : 00:04:56.09 = 13057613 samples = 22206.8 CDDA sectors
File Size : 11.9M
Bit Rate : 323k
Sample Encoding: MPEG audio (layer I, II or III)
Comments :
Title=Aurora
Artist=Shaam Larein
Album=Sculpture
Tracknumber=01
Year=2020



Register


Go to the top of the page
  Insert nick Quick quote
+Quote Post
 
Start new topic
Replies (1 - 3)
post Feb 10 2020, 22:49:58
Post #2

Два Литра
**
Group: Завсегдатай
Posts: 124
Releases: 0
On Forums: 13 years 1 week
Thanks: 110 time(s)
Russian Federation




Go to the top of the page
  Insert nick Quick quote
+Quote Post
post Feb 11 2020, 15:57:29
Post #3

hearer & reader
**************
Group: Металариец
Posts: 8,530
Releases: 133
From: Moscow
On Forums: 12 years 7 months
Thanks: 8414 time(s)
Russian Federation


Голос приятный. Музыку кто-бы ей сочинил.


Thanks:
Go to the top of the page
  Insert nick Quick quote
+Quote Post
post Feb 14 2020, 11:23:21
Post #4

хаос и порядок
***
Group: Завсегдатай
Posts: 286
Releases: 0
From: Запорожье
On Forums: 9 years 11 months
Thanks: 97 time(s)
Ukraine


ЦИТАТА(AHBAnep @ 11th February 2020 - 18:57:29) *
Музыку кто-бы ей сочинил.


Проблема не столько в самой музыке, сколько в безэмоциональном исполнении. Ещё и вычищено, сведено серенько и подальше на фон.
Яркий вокал на фоне посной невзрачной подзвучки.
Go to the top of the page
  Insert nick Quick quote
+Quote Post

Reply to this topicStart new topic
1 User(s) are reading this topic (1 Guests and 0 Anonymous Users)
0 Members:

 



- Lo-Fi Version Support form
Copyrights and abuse reports form
Time is now: 10th April 2020 - 07:39:55