Welcome Guest ( Log In | Register )

> И неформату есть предел.

Рэп/хип-хоп/шансон/поп удаляются. Для них есть свои порталы.

 
Reply to this topicStart new topic
> Various Artists - Sonic Seducer: Cold Hands Seduction 215 [compilation] (2020), Various Gothic
post Feb 9 2020, 13:19:31
Post #1

Мегаманьяк
***********
Group: Металариец
Posts: 1,711
Releases: 462
On Forums: 11 years 9 months
Thanks: 6521 time(s)
Ireland


(IMG:https://metalarea.org/images/audiocovers/2020_Feb/acov_tid333629.jpg)

*Artist: Various Artists
*Album: Sonic Seducer: Cold Hands Seduction 215 [compilation]
*Year: 2020
*Genre: Various Gothic
*Country: Many (IMG:https://metalarea.org/forum/style_images/flags/Many.png)
*Format: mp3@CBR320kbps
*Size: 151MB

Tracklist:
01. Snakeskin - Fuck U 2
02. Eisfabrik - Grim Reaper
03. Bianca Stücker & Rafaela Schützner - Aus Den Vier Elementen Kommen Alle Ding
04. Uhlenflug - Mirie It Is While Sumer Ilast
05. Edward Ka-Spel feat. Motion Kapture - Why We Live
06. 808 Dot Pop - Blackbodies (Pulsation)
07. Sun Of The Dying - White Skies And Grey Lands
08. A Line Of Crows - Devil In His Bones
09. Corde Oblique - Le Torri Di Maddaloni
10. Jack Torrance - Harbour
11. Arctic Sunrise - Emptiness
12. Circumpolar - We Will Remain (Second Seal)
13. Ghost Motel feat. Alina Von Der Gathen - The Long Night
14. Cygnotic - Iridium Dawn
15. Antivote - Stages To Verity
******************************
Total playing time: 1:07:17

Technical info
(IMG:https://metalarea.org/images/spectrogram/2020_Feb/ac840fb9eaa6a159d86bed182ef631dd.png)
Input File: 03 Aus den vier Elementen kommen alle Ding.mp3
Channels : 2
Sample Rate : 44100
Precision : 16-bit
Duration : 00:04:41.17 = 12399641 samples = 21087.8 CDDA sectors
File Size : 11.3M
Bit Rate : 323k
Sample Encoding: MPEG audio (layer I, II or III)
Comments :
Title=Aus den vier Elementen kommen alle Ding
Artist=Bianca Stücker & Rafaela Schützner
Album=Cold Hands Seduction Vol. 215
Tracknumber=03/15
Year=2020
Genre=50



Register


Thanks:
Go to the top of the page
  Insert nick Quick quote
+Quote Post

Reply to this topicStart new topic
1 User(s) are reading this topic (1 Guests and 0 Anonymous Users)
0 Members:

 



- Lo-Fi Version Support form
Copyrights and abuse reports form
Time is now: 21st February 2020 - 23:14:52