Welcome Guest ( Log In | Register )

> И неформату есть предел.

Рэп/хип-хоп/шансон/поп удаляются. Для них есть свои порталы.

 
Reply to this topicStart new topic
> Stone Temple Pilots - Perdida (2020), Alternative Rock (D6)
post Feb 10 2020, 12:15:35
Post #1

MDM-Thrash Metal
**************
Group: Металариец
Posts: 9,367
Releases: 792
From: Одесса
On Forums: 12 years 8 months
Thanks: 21360 time(s)
Ukraine


(IMG:http://metalarea.org/images/audiocovers/2020_Feb/acov_tid333665_thumb.jpg)

*Artist: Stone Temple Pilots
*Album: Perdida
*Year: 2020
*Genre: Alternative Rock
*Country: United States (IMG:http://metalarea.org/forum/style_images/flags/United%20States.png)
*Format: mp3@CBR320kbps
*Size: 104MB

Tracklist:
01. Fare Thee Well 04:21
02. Three Wishes 04:51
03. Perdida 03:29
04. I Didn't Know the Time 05:31
05. Years 03:30
06. She's My Queen 04:41
07. Miles Away 04:56
08. You Found Yourself While Losing Your Heart 05:43
09. I Once Sat at Your Table 01:56
10. Sunburst 06:28
******************************
Total playing time: 45:26

(IMG:http://metalarea.org/images/youtube.png)


Technical info
(IMG:http://metalarea.org/images/spectrogram/2020_Feb/6b5e3bf79620bc79df8f692e377c8464.png)
Input File: 2 - Three Wishes.mp3
Channels : 2
Sample Rate : 44100
Precision : 16-bit
Duration : 00:04:52.04 = 12879052 samples = 21903.1 CDDA sectors
File Size : 11.7M
Bit Rate : 321k
Sample Encoding: MPEG audio (layer I, II or III)
Comments :
Title=Three Wishes
Artist=Stone Temple Pilots
Album=Perdida
Tracknumber=2
Year=2020
Genre=Rock
Discnumber=1



Register


Go to the top of the page
  Insert nick Quick quote
+Quote Post
post Feb 10 2020, 12:48:45
Post #2

И Ван Дамм По Делам Вашим!
**************
Group: Металариец
Posts: 18,806
Releases: 26
On Forums: 11 years 9 months
Thanks: 10441 time(s)
Honduras


И эти "курилки" ожили.Интересно, кому они нужны?
Go to the top of the page
  Insert nick Quick quote
+Quote Post
post Feb 15 2020, 14:55:06
Post #3

Три Литра
***
Group: Завсегдатай
Posts: 203
Releases: 0
From: Kiev
On Forums: 11 years 3 months
Thanks: 43 time(s)
Ukraine


Да они и не умирали, недавно уже был альбом, так себе кстати.
Хорошо что честно жанр указали, что не грандж
Go to the top of the page
  Insert nick Quick quote
+Quote Post

Reply to this topicStart new topic
1 User(s) are reading this topic (1 Guests and 0 Anonymous Users)
0 Members:

 



- Lo-Fi Version Support form
Copyrights and abuse reports form
Time is now: 10th April 2020 - 06:51:28