Welcome Guest ( Log In | Register )

> Releases Upload / Добавление релизов

Добавить релиз тут / Click here to add release
Рекомендованные обменники / Recommended file shares

> Turbocharged - Above Lords, Below Earth (2019), Old School Blackened Thrash Metal/Punk
post Feb 10 2020, 14:01:07
Post #1

Правь статус, ####!111
**************
Group: Металариец
Posts: 21,254
Releases: 14534
From: Г.Харьков
On Forums: 7 years 10 months
Thanks: 259072 time(s)
Unknown


(IMG:http://metalarea.org/images/audiocovers/2020_Feb/acov_tid333670_thumb.jpg)

*Artist: Turbocharged
*Album: Above Lords, Below Earth
*Year: 2019
*Genre: Old School Blackened Thrash Metal/Punk
*Country: Sweden (IMG:http://metalarea.org/forum/style_images/flags/Sweden.png)
*Format: mp3@CBR320kbps
*Size: 80MB

Tracklist:
1. The Crawling Path of Worms 03:28
2. Total Doom Arise 02:25
3. Above Lords, Below Earth 02:56
4. Doomsday Hammer 01:49
5. Low-tech Blasphemy 03:19
6. Thirteen Burials 03:27
7. Obscurant 02:05
8. Harbingers at Dawn 02:45
9. The Burning of a Redeemer 03:25
10. Black Tornado 03:21
11. Dried Blood (The Heretic Confession) 03:42
12. Unholy Deathpunk 02:40
******************************
Total playing time: 35:22



Extended info
Ronnie "Ripper" Olson Bass, Vocals (lead) (2000-present)
See also: Ronnie Ripper's Private War, Dragnagl, ex-Gehennah, ex-Vomitory
Freddie Fister Drums, Vocals (backing) (2003-present)
See also: ex-Hellwar, ex-Dragnagl
Old Nick Guitars, Vocals (backing) (2004-present)


Technical info
(IMG:http://metalarea.org/images/spectrogram/2020_Feb/3c1f75a22a067549d1cc16d55779218a.png)
Input File: 05 - Low-tech Blasphemy.mp3
Channels : 2
Sample Rate : 44100
Precision : 16-bit
Duration : 00:03:18.93 = 8772857 samples = 14919.8 CDDA sectors
File Size : 7.96M
Bit Rate : 320k
Sample Encoding: MPEG audio (layer I, II or III)
Comments :
Title=Low-tech Blasphemy
Artist=Turbocharged
Album=Above Lords, Below Earth
Tracknumber=5
Year=2019
Genre=Metal



Register


Go to the top of the page
  Insert nick Quick quote
+Quote Post
 
Start new topic
Replies (1 - 1)
post Feb 14 2020, 18:03:40    Сейчас играет: Indian Nightmare 2019 By Ancient Force
Post #2

Два Литра
**
Group: Завсегдатай
Posts: 134
Releases: 0
On Forums: 12 years 2 weeks
Thanks: 47 time(s)
Russian Federation


Как всегда, прекрасно! (IMG:style_emoticons/default/m1234.gif)
И да. Вопрос на миллион к уважаемым пользователям МА: а нет ли у кого по сусекам альбома вот этого вот проекта Ronnie Ripper's Private War? Давно ищу, даже на каком-то муз.портале находил 3 отдельных песенки... Но это всё... Буду весьма признателен! (IMG:style_emoticons/default/pray.gif)
Go to the top of the page
  Insert nick Quick quote
+Quote Post

Reply to this topicStart new topic
1 User(s) are reading this topic (1 Guests and 0 Anonymous Users)
0 Members:

 



- Lo-Fi Version Support form
Copyrights and abuse reports form
Time is now: 3rd April 2020 - 05:36:37