Welcome Guest ( Log In | Register )

> И неформату есть предел.

Рэп/хип-хоп/шансон/поп удаляются. Для них есть свои порталы.

> Der Golem - Zmet (1999), Avant-Garde Post-Punk/Ambient/Depressive Rock (D4)
post Feb 12 2020, 09:36:40
Post #1

Правь статус, ####!111
**************
Group: Металариец
Posts: 6,526
Releases: 6012
From: Lithuania
On Forums: 13 years 10 months
Thanks: 45368 time(s)
Lithuania


(IMG:https://metalarea.org/images/audiocovers/2020_Feb/acov_tid333702_thumb.jpg)

*Artist: Der Golem
*Album: Zmet
*Year: 1999
*Genre: Avant-Garde Post-Punk/Ambient/Depressive Rock
*Country: Russian Federation (IMG:https://metalarea.org/forum/style_images/flags/Russian%20Federation.png)
*Format: mp3@CBR320kbps
*Size: 99MB

Tracklist:
1. Нет 5:03
2. Оригинальная Мелодия 5:09
3. Древние Звёзды 3:34
4. Bravo 4:46
5. Солнце Мёртвых 5:25
6. Целуя Твои Корни 3:00
7. Пан 3:34
8. Птицы 3:10
9. Исход I 6:25
10. Исход II 3:09
******************************
Total playing time: 43:15

(IMG:https://metalarea.org/images/youtube.png)

Technical info
(IMG:https://metalarea.org/images/spectrogram/2020_Feb/1980c64c2e356838d193816288c0d24d.png)
Input File: 09 - Исход I.mp3
Channels : 2
Sample Rate : 44100
Precision : 16-bit
Duration : 00:06:24.70 = 16965402 samples = 28852.7 CDDA sectors
File Size : 15.4M
Bit Rate : 321k
Sample Encoding: MPEG audio (layer I, II or III)
Comments :
Title=Исход I
Artist=Der Golem
Album=Zmet
Tracknumber=9
Year=1999
Genre=Ambient



Register


Go to the top of the page
  Insert nick Quick quote
+Quote Post
 
Start new topic
Replies (1 - 3)
post Feb 12 2020, 15:31:43
Post #2

Два Литра
**
Group: Завсегдатай
Posts: 119
Releases: 0
On Forums: 11 years 10 months
Thanks: 96 time(s)
Russian Federation


Эге, этого ещё не было здесь?
"Нет" гениальна, остальное совсем забыл за несколько лет с момента прослушивания. Нужно переслушать.


Thanks:
Go to the top of the page
  Insert nick Quick quote
+Quote Post
post Feb 19 2020, 15:50:24
Post #3

Два Литра
**
Group: Завсегдатай
Posts: 119
Releases: 0
On Forums: 11 years 10 months
Thanks: 96 time(s)
Russian Federation


Удивлялся, потому что "Старуха мха" здесь выложена ещё 12 лет назад и обсуждаема. Хотя её я так и не понял, а вот сидоровский "Sedative" невероятен почти полностью.

А "Нет" снова ввела в состояние транса. Заставив вспомнить и пережить описываемые события и сделав настолько душевно плохо, что стало даже как-то почти хорошо.

Auf Wiedersehen, мадам,
Нам было с тобой хорошо.
Auf Wiedersehen, мадам.
Это время прошло.
Auf Wiedersehen, мадам,
Быть может, встретимся Там.
Go to the top of the page
  Insert nick Quick quote
+Quote Post
post Feb 19 2020, 17:15:38
Post #4

Правь статус, ####!111
**************
Group: Металариец
Posts: 2,612
Releases: 12
On Forums: 13 years 1 week
Thanks: 1494 time(s)
Russian Federation


QUOTE(Maestrovs @ Feb 19 2020, 17:50:24) *
Удивлялся, потому что "Старуха мха" здесь выложена ещё 12 лет назад и обсуждаема. Хотя её я так и не понял, а вот сидоровский "Sedative" невероятен почти полностью.

А "Нет" снова ввела в состояние транса. Заставив вспомнить и пережить описываемые события и сделав настолько душевно плохо, что стало даже как-то почти хорошо.

Auf Wiedersehen, мадам,
Нам было с тобой хорошо.
Auf Wiedersehen, мадам.
Это время прошло.
Auf Wiedersehen, мадам,
Быть может, встретимся Там.

Слушай тогда "концерт в лесу". Он особо доставляет.
Go to the top of the page
  Insert nick Quick quote
+Quote Post

Reply to this topicStart new topic
1 User(s) are reading this topic (1 Guests and 0 Anonymous Users)
0 Members:

 



- Lo-Fi Version Support form
Copyrights and abuse reports form
Time is now: 10th August 2020 - 23:42:29