Welcome Guest ( Log In | Register )

> Releases Upload / Добавление релизов

Добавить релиз тут / Click here to add release
Рекомендованные обменники / Recommended file shares

> Haemic - Forum Galactica (2020), Melodic Death/Symphonic Black Metal (D4)
post Feb 12 2020, 14:03:27
Post #1

Маньяк
**********
Group: Металариец
Posts: 1,030
Releases: 185
On Forums: 11 years 4 months
Thanks: 3710 time(s)
Russian Federation


(IMG:http://metalarea.org/images/audiocovers/2020_Feb/acov_tid333707_thumb.jpg)

*Artist: Haemic
*Album: Forum Galactica
*Year: 2020
*Genre: Melodic Death/Symphonic Black Metal
*Country: International (IMG:http://metalarea.org/forum/style_images/flags/International.png)
*Format: mp3@CBR320kbps
*Size: 100MB

Tracklist:
01. All Rise 02:37
02. Swallowed by the Ocean 04:37
03. Laid to Rest 04:43
04. Forum Galactica 05:17
05. Behold, Sycroburion 04:42
06. Intermission 01:19
07. Planetary Annihilation 06:00
08. Alpha & Omega 03:48
09. In My Way 05:52
10. Consensus 04:41
******************************
Total playing time: 43:36




Extended info


Lineup:
Ádám Farkas Programming, Songwriting (2011-present)
Marco Arndt Vocals (2018-present)


Technical info
(IMG:http://metalarea.org/images/spectrogram/2020_Feb/4e1f010effde358e5353c43171b0fb11.png)
Input File: 02-Swallowed By The Ocean.mp3
Channels : 2
Sample Rate : 44100
Precision : 16-bit
Duration : 00:04:37.18 = 12223506 samples = 20788.3 CDDA sectors
File Size : 11.1M
Bit Rate : 320k
Sample Encoding: MPEG audio (layer I, II or III)
Comments :
Title=Swallowed By The Ocean
Artist=Haemic
Album=Forum Galactica
Tracknumber=2
Year=2020
Genre=Melodic Death/Symphonic Black Metal



Register


Go to the top of the page
  Insert nick Quick quote
+Quote Post
 
Start new topic
Replies (1 - 2)
post Feb 13 2020, 13:36:09
Post #2

Литр
*
Group: Подсевший
Posts: 94
Releases: 0
From: Sogndal,Norge
On Forums: 12 years 2 months
Thanks: 46 time(s)
Norway


Nice project ,this man also made sognametal


https://www.youtube.com/user/haemorrhoid1989/videos
Go to the top of the page
  Insert nick Quick quote
+Quote Post
post Feb 13 2020, 16:23:30
Post #3

тебе 29, а ты все реверсами балуешься
***********
Group: Металариец
Posts: 1,905
Releases: 4
On Forums: 11 years 8 months
Thanks: 628 time(s)
Russian Federation


Forum Plastica (IMG:style_emoticons/default/1488.gif)
Задумка вроде найс, но звук бездушная пластмасса (IMG:style_emoticons/default/smile2.gif)
Go to the top of the page
  Insert nick Quick quote
+Quote Post

Reply to this topicStart new topic
1 User(s) are reading this topic (1 Guests and 0 Anonymous Users)
0 Members:

 



- Lo-Fi Version Support form
Copyrights and abuse reports form
Time is now: 10th April 2020 - 09:02:28