Welcome Guest ( Log In | Register )

> И неформату есть предел.

Рэп/хип-хоп/шансон/поп удаляются. Для них есть свои порталы.

> Druadan Forest - Dismal Spells From The Dragonrealm (2019), Dungeon Synth (D)
post Feb 12 2020, 18:22:42
Post #1

Мегаманьяк
***********
Group: Металариец
Posts: 1,884
Releases: 1494
From: Praha
On Forums: 5 years 10 months
Thanks: 37152 time(s)
Czech Republic


(IMG:http://metalarea.org/images/audiocovers/2020_Feb/acov_tid333715_thumb.jpg)

*Artist: Druadan Forest
*Album: Dismal Spells From The Dragonrealm
*Year: 2019
*Genre: Dungeon Synth
*Country: Finland (IMG:http://metalarea.org/forum/style_images/flags/Finland.png)
*Format: mp3@VBR245kbps
*Size: 121MB

Tracklist:
1. Unsung Spell Of No Solace 19:26
2. Enthralled By Majestic Winters Eternity 17:20
3. The Seizure of Power in the Luminous Lands by the Hands of the Stalking Fiends 19:26
4. No Stars Upon the Black Sea of Macrocosm 16:05
******************************
Total playing time: 1:12:17



Extended info
Werewolf Records - EVIL-056


Technical info
(IMG:http://metalarea.org/images/spectrogram/2020_Feb/b0cb1cfde8aa63d1b55d7999f0993de7.png)
Input File: 02. Enthralled By Majestic Winters Eternity.mp3
Channels : 2
Sample Rate : 44100
Precision : 16-bit
Duration : 00:17:20.69 = 45894517 samples = 78051.9 CDDA sectors
File Size : 28.1M
Bit Rate : 216k
Sample Encoding: MPEG audio (layer I, II or III)
Comments :
Title=Enthralled By Majestic Winters Eternity
Artist=Druadan Forest
Album=Dismal Spells from the Dragonrealm
Tracknumber=02/04
Year=2019
Genre=Dungeon Synth



Register


Go to the top of the page
  Insert nick Quick quote
+Quote Post
 
Start new topic
Replies (1 - 5)
post Feb 13 2020, 05:14:35
Post #2

i listen to black metal
**************
Group: Металариец
Posts: 2,526
Releases: 130
From: Москва-Лианозово
On Forums: 13 years 1 month
Thanks: 2112 time(s)
Russian Federation


твари- где мой красивый блэк как в 2017?
(IMG:style_emoticons/default/6.gif) (IMG:style_emoticons/default/6.gif) (IMG:style_emoticons/default/6.gif)
Go to the top of the page
  Insert nick Quick quote
+Quote Post
post Feb 13 2020, 11:22:51
Post #3

Group: Подсевший
Posts: 48
Releases: 0
On Forums: 1 month 5 days
Thanks: 11 time(s)
Unknown


Не совсем то что ожидал услышать от этого проекта. Но вполне себе слушается, этакий fantasy ambient с легким налетом архаики в саунде...
Go to the top of the page
  Insert nick Quick quote
+Quote Post
post Feb 13 2020, 12:02:20
Post #4

Leegte
***********
Group: Металариец
Posts: 1,598
Releases: 14
From: Kiovia
On Forums: 7 years 10 months
Thanks: 2285 time(s)
Ukraine


Господа, а подскажите подобных групп? Не каждый dungeon synth так пробирает, а тут на альбоме целый мир.
Go to the top of the page
  Insert nick Quick quote
+Quote Post
post Feb 13 2020, 12:14:13
Post #5

Group: Подсевший
Posts: 48
Releases: 0
On Forums: 1 month 5 days
Thanks: 11 time(s)
Unknown


ЦИТАТА(Kwaad @ Feb 13 2020, 17:02:20) *
Господа, а подскажите подобных групп? Не каждый dungeon synth так пробирает, а тут на альбоме целый мир.


Из современников первое что пришло в голову:
Forgotten Kingdoms
Old Tower
Mørketsvind


Thanks:
(1) Kwaad,
Go to the top of the page
  Insert nick Quick quote
+Quote Post
post Feb 13 2020, 23:30:42
Post #6

Dark Ambient Shoujo
**********
Group: Металариец
Posts: 1,231
Releases: 1
On Forums: 11 years 1 month
Thanks: 643 time(s)
Russian Federation


Thangorodrim, Depressive Silence (по классике), Ellfor, Solanum, Galdur.
Go to the top of the page
  Insert nick Quick quote
+Quote Post

Reply to this topicStart new topic
1 User(s) are reading this topic (1 Guests and 0 Anonymous Users)
0 Members:

 



- Lo-Fi Version Support form
Copyrights and abuse reports form
Time is now: 19th February 2020 - 23:08:28