Welcome Guest ( Log In | Register )

 
Reply to this topicStart new topic
> Seven Spires - Emerald Seas (2020), Symphonic Metal
post Feb 13 2020, 11:59:09
Post #1

Serial Uploader
Group Icon
Group: V.I.P
Posts: 37,133
Releases: 35317
From: Lithuania
On Forums: 11 years 11 months
Thanks: 419544 time(s)
Lithuania


(IMG:http://metalarea.org/images/audiocovers/2020_Feb/acov_tid333741_thumb.jpg)

*Artist: Seven Spires
*Album: Emerald Seas
*Year: 2020
*Genre: Symphonic Metal
*Country: United States (IMG:http://metalarea.org/forum/style_images/flags/United%20States.png)
*Format: mp3@CBR320kbps
*Size: 112MB

Tracklist:
01. Igne Defendit 01:59
02. Ghost of a Dream 03:41
03. No Words Exchanged 03:28
04. Every Crest 03:57
05. Unmapped Darkness 04:32
06. Succumb 03:54
07. Drowner of Worlds 05:06
08. Silvery Moon 03:10
09. Bury You 03:57
10. Fearless 05:15
11. With Love from the Other Side 01:33
12. The Trouble with Eternal Life 04:39
13. Emerald Seas Overture 03:52
******************************
Total playing time: 49:03



(IMG:https://metalarea.org/images/youtube.png)

Technical info
(IMG:http://metalarea.org/images/spectrogram/2020_Feb/fba9b6a0cae4a8b42850f156aeb356f9.png)
Input File: 02 - Ghost of a Dream.mp3
Channels : 2
Sample Rate : 44100
Precision : 16-bit
Duration : 00:03:41.95 = 9788039 samples = 16646.3 CDDA sectors
File Size : 8.94M
Bit Rate : 322k
Sample Encoding: MPEG audio (layer I, II or III)
Comments :
Title=Ghost of a Dream
Artist=Seven Spires
Album=Emerald Seas
Tracknumber=2
Year=2020
Genre=Metal
Discnumber=1



Register


Go to the top of the page
  Insert nick Quick quote
+Quote Post
post Feb 14 2020, 10:07:06
Post #2

Тридцать лет на борту "Тяжёлого" крейсера
**************
Group: Металариец
Posts: 2,282
Releases: 0
From: Питер
On Forums: 12 years 11 months
Thanks: 642 time(s)
Russian Federation


Слабовато..но местами, есть на что обратить внимание
Go to the top of the page
  Insert nick Quick quote
+Quote Post

Reply to this topicStart new topic
1 User(s) are reading this topic (1 Guests and 0 Anonymous Users)
0 Members:

 



- Lo-Fi Version Support form
Copyrights and abuse reports form
Time is now: 4th June 2020 - 19:33:45