Welcome Guest ( Log In | Register )

> Releases Upload / Добавление релизов

Добавить релиз тут / Click here to add release
Рекомендованные обменники / Recommended file shares

> Enslavement - Filth (2020), Brutal Death Metal (D5)
post Feb 13 2020, 13:20:05
Post #1

Serial Uploader
Group Icon
Group: V.I.P
Posts: 37,112
Releases: 35296
From: Lithuania
On Forums: 11 years 10 months
Thanks: 418319 time(s)
Lithuania


(IMG:http://metalarea.org/images/audiocovers/2020_Feb/acov_tid333751_thumb.jpg)

*Artist: Enslavement
*Album: Filth
*Year: 2020
*Genre: Brutal Death Metal
*Country: United Kingdom (IMG:http://metalarea.org/forum/style_images/flags/United%20Kingdom.png)
*Format: mp3@CBR320kbps
*Size: 76MB

Tracklist:
01. Berzerker
02. Lesion
03. Anthropicide
04. Extermination
05. Sculpted from Filth
06. Penitent
07. Seduce, Sedate, Eviscerate
08. Human Osteoclast
09. Faecal Matter Consumption
******************************
Total playing time: 33:04




Technical info
(IMG:http://metalarea.org/images/spectrogram/2020_Feb/2d3685ed3b89ef208221863506a26d2e.png)
Input File: 02. Lesion.mp3
Channels : 2
Sample Rate : 44100
Precision : 16-bit
Duration : 00:03:00.47 = 7958595 samples = 13535 CDDA sectors
File Size : 7.29M
Bit Rate : 323k
Sample Encoding: MPEG audio (layer I, II or III)
Comments :
Title=Lesion
Artist=Enslavement
Album=Filth
Tracknumber=2
Year=2020
Discnumber=1



Register


Go to the top of the page
  Insert nick Quick quote
+Quote Post
 
Start new topic
Replies (1 - 1)
post Feb 14 2020, 18:25:34
Post #2

Мегаманьяк
***********
Group: Металариец
Posts: 1,737
Releases: 0
On Forums: 11 years 1 month
Thanks: 680 time(s)
Antarctica


Шаблонно, заурядно. Не то, чтобы отстой, но.
Go to the top of the page
  Insert nick Quick quote
+Quote Post

Reply to this topicStart new topic
1 User(s) are reading this topic (1 Guests and 0 Anonymous Users)
0 Members:

 



- Lo-Fi Version Support form
Copyrights and abuse reports form
Time is now: 10th April 2020 - 10:58:28