Welcome Guest ( Log In | Register )

> Releases Upload / Добавление релизов

Добавить релиз тут / Click here to add release
Рекомендованные обменники / Recommended file shares

 
Reply to this topicStart new topic
> Necrocracy - Decay (2019), Death/Black Metal
post Feb 13 2020, 14:38:08
Post #1

Serial Uploader
Group Icon
Group: V.I.P
Posts: 37,112
Releases: 35296
From: Lithuania
On Forums: 11 years 10 months
Thanks: 418255 time(s)
Lithuania


(IMG:http://metalarea.org/images/audiocovers/2020_Feb/acov_tid333759_thumb.jpg)

*Artist: Necrocracy
*Album: Decay
*Year: 2019
*Genre: Death/Black Metal
*Country: United Kingdom (IMG:http://metalarea.org/forum/style_images/flags/United%20Kingdom.png)
*Format: mp3@CBR320kbps
*Size: 113MB

Tracklist:
01. Let Sorrow Prevail 07:46
02. The Enforcement of Joy 04:01
03. Blackened Spiral 05:51
04. Loathe Thy Fate 09:10
05. Where the Sun Is Silent 03:15
06. Siel Vernietiger 05:12
07. Return to the Past 09:21
08. Decay (Outro) 04:35
******************************
Total playing time: 49:11



(IMG:http://metalarea.org/images/youtube.png)

Technical info
(IMG:http://metalarea.org/images/spectrogram/2020_Feb/bbeddc1a6de87e9571e1feafd108af83.png)
Input File: 02. The Enforcement of Joy.mp3
Channels : 2
Sample Rate : 44100
Precision : 16-bit
Duration : 00:04:01.46 = 10648518 samples = 18109.7 CDDA sectors
File Size : 9.73M
Bit Rate : 322k
Sample Encoding: MPEG audio (layer I, II or III)
Comments :
Title=The Enforcement of Joy
Artist=Dark East Productions
Album=Necrocracy - Decay
Tracknumber=2
Year=2020



Register


Go to the top of the page
  Insert nick Quick quote
+Quote Post

Reply to this topicStart new topic
1 User(s) are reading this topic (1 Guests and 0 Anonymous Users)
0 Members:

 



- Lo-Fi Version Support form
Copyrights and abuse reports form
Time is now: 7th April 2020 - 20:24:33