Welcome Guest ( Log In | Register )

> Releases Upload / Добавление релизов

Добавить релиз тут / Click here to add release
Рекомендованные обменники / Recommended file shares

 
Reply to this topicStart new topic
> Syrgjyn - Manifest Of Essence (2010), Death Metal
post Feb 13 2020, 14:54:52
Post #1

Serial Uploader
Group Icon
Group: V.I.P
Posts: 37,112
Releases: 35296
From: Lithuania
On Forums: 11 years 9 months
Thanks: 418244 time(s)
Lithuania


(IMG:http://metalarea.org/images/audiocovers/2020_Feb/acov_tid333760_thumb.jpg)

*Artist: Syrgjyn
*Album: Manifest Of Essence
*Year: 2010
*Genre: Death Metal
*Country: Albania (IMG:http://metalarea.org/forum/style_images/flags/Albania.png)
*Format: mp3@CBR320kbps
*Size: 97MB

Tracklist:
01. Prelude to Infinity 03:12
02. An Infinity to Suffer 01:59
03. Oblivion 06:56
04. A Lost Soul and Swallows 05:20
05. Karma Lux (Albageddon) 06:40
06. Djajtë, jo unë... 06:35
07. Manifest of Essence 05:24
08. Xhehenem (Bonus Track) 05:22
******************************
Total playing time: 41:28

(IMG:http://metalarea.org/images/myspace.png)




(IMG:https://metalarea.org/images/youtube.png)

Technical info
(IMG:http://metalarea.org/images/spectrogram/2020_Feb/e8a15bac793e9279772055eac7a50a7c.png)
Input File: 02 - An Infinity to Suffer.mp3
Channels : 2
Sample Rate : 44100
Precision : 16-bit
Duration : 00:01:59.08 = 5251208 samples = 8930.63 CDDA sectors
File Size : 5.05M
Bit Rate : 340k
Sample Encoding: MPEG audio (layer I, II or III)
Comments :
Title=An Infinity to Suffer
Artist=Syrgjyn
Album=Manifest of Essence
Tracknumber=2
Year=2010-06-12
Genre=Rock; Metal
Discnumber=1



Register


Go to the top of the page
  Insert nick Quick quote
+Quote Post

Reply to this topicStart new topic
1 User(s) are reading this topic (1 Guests and 0 Anonymous Users)
0 Members:

 



- Lo-Fi Version Support form
Copyrights and abuse reports form
Time is now: 7th April 2020 - 04:48:07