Welcome Guest ( Log In | Register )

> Releases Upload / Добавление релизов

Добавить релиз тут / Click here to add release
Рекомендованные обменники / Recommended file shares

 
Reply to this topicStart new topic
> Frayle - The White Witch [ep] (2018), Doom/Post-Metal
post Feb 13 2020, 15:37:50
Post #1

Serial Uploader
Group Icon
Group: V.I.P
Posts: 37,112
Releases: 35296
From: Lithuania
On Forums: 11 years 10 months
Thanks: 418316 time(s)
Lithuania


(IMG:http://metalarea.org/images/audiocovers/2020_Feb/acov_tid333762_thumb.jpg)

*Artist: Frayle
*Album: The White Witch [ep]
*Year: 2018
*Genre: Doom/Post-Metal
*Country: United States (IMG:http://metalarea.org/forum/style_images/flags/United%20States.png)
*Format: mp3@CBR320kbps
*Size: 44MB

Tracklist:
01. Let the Darkness In 04:38
02. The White Witch 05:25
03. Wandering Star (Portishead cover) 03:58
04. Things That Make Us Bleed 05:34
******************************
Total playing time: 19:35



(IMG:http://metalarea.org/images/youtube.png)

Technical info
(IMG:http://metalarea.org/images/spectrogram/2020_Feb/f3dad144fcfc92701e3ed18989aece8e.png)
Input File: 02. The White Witch.mp3
Channels : 2
Sample Rate : 44100
Precision : 16-bit
Duration : 00:05:25.17 = 14339865 samples = 24387.5 CDDA sectors
File Size : 13.0M
Bit Rate : 320k
Sample Encoding: MPEG audio (layer I, II or III)
Comments :
Title=The White Witch
Artist=Frayle
Album=The White Witch EP
Tracknumber=2
Year=2018
Genre=Rock



Register


Go to the top of the page
  Insert nick Quick quote
+Quote Post

Reply to this topicStart new topic
1 User(s) are reading this topic (1 Guests and 0 Anonymous Users)
0 Members:

 



- Lo-Fi Version Support form
Copyrights and abuse reports form
Time is now: 10th April 2020 - 09:46:34