Welcome Guest ( Log In | Register )

> Releases Upload / Добавление релизов

Добавить релиз тут / Click here to add release
Рекомендованные обменники / Recommended file shares

 
Reply to this topicStart new topic
> Kneel - Infinite Worship, Slaves Eternal [ep] (2020), Black Metal
post Feb 13 2020, 16:14:15
Post #1

Detective Godzilla
Group Icon
Group: Moderation team
Posts: 3,380
Releases: 295
On Forums: 9 years 2 weeks
Thanks: 10729 time(s)
Russian Federation


(IMG:https://metalarea.org/images/audiocovers/2020_Feb/acov_tid333764_thumb.png)

*Artist: Kneel
*Album: Infinite Worship, Slaves Eternal [ep]
*Year: 2020
*Genre: Black Metal
*Country: United States (IMG:https://metalarea.org/forum/style_images/flags/United%20States.png)
*Format: mp3@CBR320kbps
*Size: 48MB

Tracklist:
01. Infinite Worship, Slaves Eternal 07:50
02. Breaking Knees Devotion 05:28
03. Clasped Hands a Molten Spire 05:11
******************************
Total playing time: 18:29



Extended info
Personal purchase


Technical info
(IMG:https://metalarea.org/images/spectrogram/2020_Feb/0073ab363a510ff19cc2014e21db705b.png)
Input File: KNEEL - Infinite Worship, Slaves Eternal - 02 Breaking Knees Devotion.mp3
Channels : 2
Sample Rate : 44100
Precision : 16-bit
Duration : 00:05:28.64 = 14492936 samples = 24647.9 CDDA sectors
File Size : 13.3M
Bit Rate : 323k
Sample Encoding: MPEG audio (layer I, II or III)
Comments :
Title=Breaking Knees Devotion
Artist=KNEEL
Album=Infinite Worship, Slaves Eternal
Tracknumber=2
Year=2020



Register


Go to the top of the page
  Insert nick Quick quote
+Quote Post

Reply to this topicStart new topic
1 User(s) are reading this topic (1 Guests and 0 Anonymous Users)
0 Members:

 



- Lo-Fi Version Support form
Copyrights and abuse reports form
Time is now: 21st February 2020 - 23:08:30